  0
SECTION
  2
HEADER
  9
$ACADVER
  1
AC1009
  9
$INSBASE
 10
0.0
 20
0.0
 30
0.0
  9
$EXTMIN
 10
0.496439
 20
-6.039404
 30
0.0
  9
$EXTMAX
 10
23.726761
 20
11.920457
 30
0.0
  9
$LIMMIN
 10
0.0
 20
0.0
  9
$LIMMAX
 10
12.0
 20
9.0
  9
$ORTHOMODE
 70
     1
  9
$REGENMODE
 70
     1
  9
$FILLMODE
 70
     1
  9
$QTEXTMODE
 70
     0
  9
$MIRRTEXT
 70
     1
  9
$DRAGMODE
 70
     2
  9
$LTSCALE
 40
7.0
  9
$OSMODE
 70
    55
  9
$ATTMODE
 70
     1
  9
$TEXTSIZE
 40
2.4
  9
$TRACEWID
 40
0.05
  9
$TEXTSTYLE
  7
STANDARD
  9
$CLAYER
  8
TEXT
  9
$CELTYPE
  6
BYLAYER
  9
$CECOLOR
 62
   256
  9
$DIMSCALE
 40
1.0
  9
$DIMASZ
 40
0.18
  9
$DIMEXO
 40
0.0625
  9
$DIMDLI
 40
0.38
  9
$DIMRND
 40
0.0
  9
$DIMDLE
 40
0.0
  9
$DIMEXE
 40
0.18
  9
$DIMTP
 40
0.0
  9
$DIMTM
 40
0.0
  9
$DIMTXT
 40
0.125
  9
$DIMCEN
 40
0.0
  9
$DIMTSZ
 40
0.0
  9
$DIMTOL
 70
     0
  9
$DIMLIM
 70
     0
  9
$DIMTIH
 70
     0
  9
$DIMTOH
 70
     1
  9
$DIMSE1
 70
     0
  9
$DIMSE2
 70
     0
  9
$DIMTAD
 70
     0
  9
$DIMZIN
 70
     0
  9
$DIMBLK
  1

  9
$DIMASO
 70
     1
  9
$DIMSHO
 70
     1
  9
$DIMPOST
  1
"
  9
$DIMAPOST
  1
mm
  9
$DIMALT
 70
     1
  9
$DIMALTD
 70
     1
  9
$DIMALTF
 40
25.4
  9
$DIMLFAC
 40
1.0
  9
$DIMTOFL
 70
     0
  9
$DIMTVP
 40
0.0
  9
$DIMTIX
 70
     0
  9
$DIMSOXD
 70
     0
  9
$DIMSAH
 70
     0
  9
$DIMBLK1
  1

  9
$DIMBLK2
  1

  9
$DIMSTYLE
  2
STANDARD
  9
$DIMCLRD
 70
     0
  9
$DIMCLRE
 70
     0
  9
$DIMCLRT
 70
     0
  9
$DIMTFAC
 40
1.0
  9
$DIMGAP
 40
0.09
  9
$LUNITS
 70
     2
  9
$LUPREC
 70
     4
  9
$SKETCHINC
 40
0.1
  9
$FILLETRAD
 40
0.17715
  9
$AUNITS
 70
     0
  9
$AUPREC
 70
     0
  9
$MENU
  1
acad
  9
$ELEVATION
 40
0.0
  9
$PELEVATION
 40
0.0
  9
$THICKNESS
 40
0.0
  9
$LIMCHECK
 70
     0
  9
$BLIPMODE
 70
     0
  9
$CHAMFERA
 40
0.1
  9
$CHAMFERB
 40
0.1
  9
$SKPOLY
 70
     0
  9
$TDCREATE
 40
2451306.443503
  9
$TDUPDATE
 40
2451367.6299
  9
$TDINDWG
 40
0.15169
  9
$TDUSRTIMER
 40
0.15169
  9
$USRTIMER
 70
     1
  9
$ANGBASE
 50
0.0
  9
$ANGDIR
 70
     0
  9
$PDMODE
 70
     0
  9
$PDSIZE
 40
0.0
  9
$PLINEWID
 40
0.0
  9
$COORDS
 70
     1
  9
$SPLFRAME
 70
     0
  9
$SPLINETYPE
 70
     6
  9
$SPLINESEGS
 70
     8
  9
$ATTDIA
 70
     0
  9
$ATTREQ
 70
     1
  9
$HANDLING
 70
     1
  9
$HANDSEED
  5
17D2
  9
$SURFTAB1
 70
     6
  9
$SURFTAB2
 70
     6
  9
$SURFTYPE
 70
     6
  9
$SURFU
 70
     6
  9
$SURFV
 70
     6
  9
$UCSNAME
  2

  9
$UCSORG
 10
0.0
 20
0.0
 30
0.0
  9
$UCSXDIR
 10
1.0
 20
0.0
 30
0.0
  9
$UCSYDIR
 10
0.0
 20
1.0
 30
0.0
  9
$PUCSNAME
  2

  9
$PUCSORG
 10
0.0
 20
0.0
 30
0.0
  9
$PUCSXDIR
 10
1.0
 20
0.0
 30
0.0
  9
$PUCSYDIR
 10
0.0
 20
1.0
 30
0.0
  9
$USERI1
 70
     0
  9
$USERI2
 70
     0
  9
$USERI3
 70
     0
  9
$USERI4
 70
     0
  9
$USERI5
 70
     0
  9
$USERR1
 40
0.0
  9
$USERR2
 40
0.0
  9
$USERR3
 40
0.0
  9
$USERR4
 40
0.0
  9
$USERR5
 40
0.0
  9
$WORLDVIEW
 70
     1
  9
$SHADEDGE
 70
     3
  9
$SHADEDIF
 70
    70
  9
$TILEMODE
 70
     0
  9
$MAXACTVP
 70
    48
  9
$PLIMCHECK
 70
     0
  9
$PEXTMIN
 10
18.697338
 20
231.692288
 30
0.0
  9
$PEXTMAX
 10
409.219758
 20
526.965337
 30
0.0
  9
$PLIMMIN
 10
0.0
 20
0.0
  9
$PLIMMAX
 10
12.0
 20
9.0
  9
$UNITMODE
 70
     0
  9
$VISRETAIN
 70
     1
  9
$PLINEGEN
 70
     0
  9
$PSLTSCALE
 70
     1
  0
ENDSEC
  0
SECTION
  2
TABLES
  0
TABLE
  2
VPORT
 70
     1
  0
VPORT
  2
*ACTIVE
 70
     0
 10
0.0
 20
0.0
 11
1.0
 21
1.0
 12
13.535599
 22
3.400326
 13
0.0
 23
0.0
 14
0.5
 24
0.5
 15
0.5
 25
0.5
 16
0.0
 26
0.0
 36
1.0
 17
0.0
 27
0.0
 37
0.0
 40
9.149397
 41
1.864362
 42
50.0
 43
0.0
 44
0.0
 50
0.0
 51
0.0
 71
     0
 72
   100
 73
     1
 74
     1
 75
     0
 76
     0
 77
     0
 78
     0
  0
ENDTAB
  0
TABLE
  2
LTYPE
 70
     2
  0
LTYPE
  2
CONTINUOUS
 70
     0
  3
Solid line
 72
    65
 73
     0
 40
0.0
  0
LTYPE
  2
HIDDEN
 70
     0
  3
__ __ __ __ __ __ __ __ __ __ __ __ __ __ __ __
 72
    65
 73
     2
 40
0.375
 49
0.25
 49
-0.125
  0
ENDTAB
  0
TABLE
  2
LAYER
 70
     6
  0
LAYER
  2
0
 70
     0
 62
     7
  6
CONTINUOUS
  0
LAYER
  2
DIM
 70
     0
 62
     1
  6
CONTINUOUS
  0
LAYER
  2
TEXT
 70
     0
 62
     7
  6
CONTINUOUS
  0
LAYER
  2
HIDDEN
 70
     0
 62
     3
  6
HIDDEN
  0
LAYER
  2
DIMENSION
 70
     0
 62
     5
  6
CONTINUOUS
  0
LAYER
  2
DEFPOINTS
 70
     0
 62
     7
  6
CONTINUOUS
  0
ENDTAB
  0
TABLE
  2
STYLE
 70
     2
  0
STYLE
  2
STANDARD
 70
     0
 40
0.0
 41
1.0
 50
0.0
 71
     0
 42
2.4
  3
txt
  4

  0
STYLE
  2
STYLE1
 70
     0
 40
0.0
 41
1.0
 50
0.0
 71
     0
 42
4.8
  3
C:\R13\com\fonts\romans.shx
  4

  0
ENDTAB
  0
TABLE
  2
VIEW
 70
     0
  0
ENDTAB
  0
TABLE
  2
UCS
 70
     0
  0
ENDTAB
  0
TABLE
  2
APPID
 70
     1
  0
APPID
  2
ACAD
 70
     0
  0
ENDTAB
  0
TABLE
  2
DIMSTYLE
 70
     1
  0
DIMSTYLE
  2
STANDARD
 70
     0
  3

  4

  5

  6

  7

 40
1.0
 41
0.18
 42
0.0625
 43
0.38
 44
0.18
 45
0.0
 46
0.0
 47
0.0
 48
0.0
140
0.18
141
0.09
142
0.0
143
25.4
144
1.0
145
0.0
146
1.0
147
0.09
 71
     0
 72
     0
 73
     1
 74
     1
 75
     0
 76
     0
 77
     0
 78
     0
170
     0
171
     2
172
     0
173
     0
174
     0
175
     0
176
     0
177
     0
178
     0
  0
ENDTAB
  0
ENDSEC
  0
SECTION
  2
BLOCKS
  0
BLOCK
  8
0
  2
$MODEL_SPACE
 70
     0
 10
0.0
 20
0.0
 30
0.0
  3
$MODEL_SPACE
  1

  0
ENDBLK
  5
1A
  8
0
  0
BLOCK
 67
     1
  8
0
  2
$PAPER_SPACE
 70
     0
 10
0.0
 20
0.0
 30
0.0
  3
$PAPER_SPACE
  1

  0
ENDBLK
  5
17
 67
     1
  8
0
  0
BLOCK
  8
0
  2
*X0
 70
     1
 10
0.0
 20
0.0
 30
0.0
  3
*X0
  1

  0
LINE
  5
871
  8
0
 62
     0
 10
339.743746
 20
40.008835
 30
0.0
 11
339.018768
 21
40.733812
 31
0.0
  0
LINE
  5
872
  8
0
 62
     0
 10
310.855854
 20
68.896726
 30
0.0
 11
309.455717
 21
70.296863
 31
0.0
  0
LINE
  5
873
  8
0
 62
     0
 10
329.545934
 20
50.206647
 30
0.0
 11
327.783558
 21
51.969023
 31
0.0
  0
LINE
  5
874
  8
0
 62
     0
 10
339.11999
 20
38.724287
 30
0.0
 11
339.018768
 21
38.825508
 31
0.0
  0
LINE
  5
875
  8
0
 62
     0
 10
310.855854
 20
66.988422
 30
0.0
 11
308.831961
 21
69.012315
 31
0.0
  0
LINE
  5
876
  8
0
 62
     0
 10
329.545934
 20
48.298342
 30
0.0
 11
325.875253
 21
51.969023
 31
0.0
  0
LINE
  5
877
  8
0
 62
     0
 10
338.496233
 20
37.439739
 30
0.0
 11
337.707474
 21
38.228498
 31
0.0
  0
LINE
  5
878
  8
0
 62
     0
 10
310.855854
 20
65.080118
 30
0.0
 11
308.208204
 21
67.727768
 31
0.0
  0
LINE
  5
879
  8
0
 62
     0
 10
329.545934
 20
46.390038
 30
0.0
 11
323.966949
 21
51.969023
 31
0.0
  0
LINE
  5
87A
  8
0
 62
     0
 10
337.872477
 20
36.155191
 30
0.0
 11
335.799169
 21
38.228498
 31
0.0
  0
LINE
  5
87B
  8
0
 62
     0
 10
310.855854
 20
63.171813
 30
0.0
 11
307.584448
 21
66.44322
 31
0.0
  0
LINE
  5
87C
  8
0
 62
     0
 10
329.545934
 20
44.481733
 30
0.0
 11
322.058645
 21
51.969023
 31
0.0
  0
LINE
  5
87D
  8
0
 62
     0
 10
337.24872
 20
34.870643
 30
0.0
 11
333.890865
 21
38.228498
 31
0.0
  0
LINE
  5
87E
  8
0
 62
     0
 10
310.855854
 20
61.263509
 30
0.0
 11
306.960691
 21
65.158672
 31
0.0
  0
LINE
  5
87F
  8
0
 62
     0
 10
329.545934
 20
42.573429
 30
0.0
 11
320.328689
 21
51.790674
 31
0.0
  0
LINE
  5
880
  8
0
 62
     0
 10
336.624964
 20
33.586095
 30
0.0
 11
331.98256
 21
38.228498
 31
0.0
  0
LINE
  5
881
  8
0
 62
     0
 10
310.483978
 20
59.72708
 30
0.0
 11
306.336935
 21
63.874124
 31
0.0
  0
LINE
  5
882
  8
0
 62
     0
 10
329.545934
 20
40.665125
 30
0.0
 11
320.328689
 21
49.88237
 31
0.0
  0
LINE
  5
883
  8
0
 62
     0
 10
336.001207
 20
32.301547
 30
0.0
 11
330.074256
 21
38.228498
 31
0.0
  0
LINE
  5
884
  8
0
 62
     0
 10
308.575674
 20
59.72708
 30
0.0
 11
305.713178
 21
62.589576
 31
0.0
  0
LINE
  5
885
  8
0
 62
     0
 10
329.545934
 20
38.75682
 30
0.0
 11
320.328689
 21
47.974065
 31
0.0
  0
LINE
  5
886
  8
0
 62
     0
 10
335.377451
 20
31.016999
 30
0.0
 11
320.328689
 21
46.065761
 31
0.0
  0
LINE
  5
887
  8
0
 62
     0
 10
306.66737
 20
59.72708
 30
0.0
 11
305.089422
 21
61.305028
 31
0.0
  0
LINE
  5
888
  8
0
 62
     0
 10
334.753694
 20
29.732451
 30
0.0
 11
320.328689
 21
44.157457
 31
0.0
  0
LINE
  5
889
  8
0
 62
     0
 10
304.759065
 20
59.72708
 30
0.0
 11
304.465665
 21
60.02048
 31
0.0
  0
LINE
  5
88A
  8
0
 62
     0
 10
333.816061
 20
28.76178
 30
0.0
 11
320.328689
 21
42.249152
 31
0.0
  0
LINE
  5
88B
  8
0
 62
     0
 10
310.855854
 20
51.721987
 30
0.0
 11
310.608818
 21
51.969023
 31
0.0
  0
LINE
  5
88C
  8
0
 62
     0
 10
331.907757
 20
28.76178
 30
0.0
 11
320.328689
 21
40.340848
 31
0.0
  0
LINE
  5
88D
  8
0
 62
     0
 10
310.855854
 20
49.813682
 30
0.0
 11
308.700514
 21
51.969023
 31
0.0
  0
LINE
  5
88E
  8
0
 62
     0
 10
329.999452
 20
28.76178
 30
0.0
 11
320.328689
 21
38.432543
 31
0.0
  0
LINE
  5
88F
  8
0
 62
     0
 10
310.855854
 20
47.905378
 30
0.0
 11
306.792209
 21
51.969023
 31
0.0
  0
LINE
  5
890
  8
0
 62
     0
 10
328.091148
 20
28.76178
 30
0.0
 11
318.624429
 21
38.228498
 31
0.0
  0
LINE
  5
891
  8
0
 62
     0
 10
310.855854
 20
45.997073
 30
0.0
 11
304.883905
 21
51.969023
 31
0.0
  0
LINE
  5
892
  8
0
 62
     0
 10
326.182843
 20
28.76178
 30
0.0
 11
320.328689
 21
34.615934
 31
0.0
  0
LINE
  5
893
  8
0
 62
     0
 10
310.855854
 20
44.088769
 30
0.0
 11
304.323195
 21
50.621428
 31
0.0
  0
LINE
  5
894
  8
0
 62
     0
 10
319.75569
 20
35.188933
 30
0.0
 11
316.716125
 21
38.228498
 31
0.0
  0
LINE
  5
895
  8
0
 62
     0
 10
324.274539
 20
28.76178
 30
0.0
 11
320.328689
 21
32.70763
 31
0.0
  0
LINE
  5
896
  8
0
 62
     0
 10
310.855854
 20
42.180464
 30
0.0
 11
304.323195
 21
48.713124
 31
0.0
  0
LINE
  5
897
  8
0
 62
     0
 10
319.005488
 20
34.030831
 30
0.0
 11
314.80782
 21
38.228498
 31
0.0
  0
LINE
  5
898
  8
0
 62
     0
 10
322.366235
 20
28.76178
 30
0.0
 11
320.328689
 21
30.799326
 31
0.0
  0
LINE
  5
899
  8
0
 62
     0
 10
310.855854
 20
40.27216
 30
0.0
 11
304.323195
 21
46.804819
 31
0.0
  0
LINE
  5
89A
  8
0
 62
     0
 10
318.255286
 20
32.872729
 30
0.0
 11
312.899516
 21
38.228498
 31
0.0
  0
LINE
  5
89B
  8
0
 62
     0
 10
320.45793
 20
28.76178
 30
0.0
 11
320.328689
 21
28.891021
 31
0.0
  0
LINE
  5
89C
  8
0
 62
     0
 10
310.855854
 20
38.363856
 30
0.0
 11
304.323195
 21
44.896515
 31
0.0
  0
LINE
  5
89D
  8
0
 62
     0
 10
317.505084
 20
31.714626
 30
0.0
 11
310.991212
 21
38.228498
 31
0.0
  0
LINE
  5
89E
  8
0
 62
     0
 10
316.754881
 20
30.556524
 30
0.0
 11
304.323195
 21
42.988211
 31
0.0
  0
LINE
  5
89F
  8
0
 62
     0
 10
316.004679
 20
29.398422
 30
0.0
 11
304.323195
 21
41.079906
 31
0.0
  0
LINE
  5
8A0
  8
0
 62
     0
 10
314.733017
 20
28.76178
 30
0.0
 11
304.323195
 21
39.171602
 31
0.0
  0
LINE
  5
8A1
  8
0
 62
     0
 10
312.824712
 20
28.76178
 30
0.0
 11
304.323195
 21
37.263297
 31
0.0
  0
LINE
  5
8A2
  8
0
 62
     0
 10
310.916408
 20
28.76178
 30
0.0
 11
304.323195
 21
35.354993
 31
0.0
  0
LINE
  5
8A3
  8
0
 62
     0
 10
309.008104
 20
28.76178
 30
0.0
 11
304.323195
 21
33.446688
 31
0.0
  0
LINE
  5
8A4
  8
0
 62
     0
 10
307.099799
 20
28.76178
 30
0.0
 11
304.323195
 21
31.538384
 31
0.0
  0
LINE
  5
8A5
  8
0
 62
     0
 10
305.191495
 20
28.76178
 30
0.0
 11
304.323195
 21
29.63008
 31
0.0
  0
LINE
  5
8A6
  8
0
 62
     0
 10
340.367503
 20
41.293382
 30
0.0
 11
339.018768
 21
42.642117
 31
0.0
  0
LINE
  5
8A7
  8
0
 62
     0
 10
310.855854
 20
70.805031
 30
0.0
 11
310.079474
 21
71.581411
 31
0.0
  0
LINE
  5
8A8
  8
0
 62
     0
 10
321.933805
 20
59.72708
 30
0.0
 11
320.328689
 21
61.332196
 31
0.0
  0
LINE
  5
8A9
  8
0
 62
     0
 10
340.991259
 20
42.57793
 30
0.0
 11
339.018768
 21
44.550421
 31
0.0
  0
LINE
  5
8AA
  8
0
 62
     0
 10
310.855854
 20
72.713335
 30
0.0
 11
310.70323
 21
72.865959
 31
0.0
  0
LINE
  5
8AB
  8
0
 62
     0
 10
323.842109
 20
59.72708
 30
0.0
 11
320.328689
 21
63.240501
 31
0.0
  0
LINE
  5
8AC
  8
0
 62
     0
 10
341.615016
 20
43.862478
 30
0.0
 11
339.018768
 21
46.458726
 31
0.0
  0
LINE
  5
8AD
  8
0
 62
     0
 10
312.297225
 20
73.180269
 30
0.0
 11
311.326987
 21
74.150507
 31
0.0
  0
LINE
  5
8AE
  8
0
 62
     0
 10
325.750414
 20
59.72708
 30
0.0
 11
320.328689
 21
65.148805
 31
0.0
  0
LINE
  5
8AF
  8
0
 62
     0
 10
342.238772
 20
45.147026
 30
0.0
 11
339.018768
 21
48.36703
 31
0.0
  0
LINE
  5
8B0
  8
0
 62
     0
 10
314.205529
 20
73.180269
 30
0.0
 11
311.950743
 21
75.435055
 31
0.0
  0
LINE
  5
8B1
  8
0
 62
     0
 10
327.658718
 20
59.72708
 30
0.0
 11
320.328689
 21
67.05711
 31
0.0
  0
LINE
  5
8B2
  8
0
 62
     0
 10
342.862529
 20
46.431574
 30
0.0
 11
339.018768
 21
50.275335
 31
0.0
  0
LINE
  5
8B3
  8
0
 62
     0
 10
316.113834
 20
73.180269
 30
0.0
 11
312.5745
 21
76.719603
 31
0.0
  0
LINE
  5
8B4
  8
0
 62
     0
 10
329.545934
 20
59.748169
 30
0.0
 11
320.328689
 21
68.965414
 31
0.0
  0
LINE
  5
8B5
  8
0
 62
     0
 10
343.486285
 20
47.716122
 30
0.0
 11
339.233384
 21
51.969023
 31
0.0
  0
LINE
  5
8B6
  8
0
 62
     0
 10
318.022138
 20
73.180269
 30
0.0
 11
313.198256
 21
78.004151
 31
0.0
  0
LINE
  5
8B7
  8
0
 62
     0
 10
329.545934
 20
61.656473
 30
0.0
 11
320.328689
 21
70.873719
 31
0.0
  0
LINE
  5
8B8
  8
0
 62
     0
 10
344.110042
 20
49.00067
 30
0.0
 11
341.141689
 21
51.969023
 31
0.0
  0
LINE
  5
8B9
  8
0
 62
     0
 10
319.930443
 20
73.180269
 30
0.0
 11
313.822013
 21
79.288699
 31
0.0
  0
LINE
  5
8BA
  8
0
 62
     0
 10
329.545934
 20
63.564778
 30
0.0
 11
320.328689
 21
72.782023
 31
0.0
  0
LINE
  5
8BB
  8
0
 62
     0
 10
344.733798
 20
50.285218
 30
0.0
 11
343.049993
 21
51.969023
 31
0.0
  0
LINE
  5
8BC
  8
0
 62
     0
 10
329.545934
 20
65.473082
 30
0.0
 11
314.445769
 21
80.573247
 31
0.0
  0
LINE
  5
8BD
  8
0
 62
     0
 10
345.357555
 20
51.569766
 30
0.0
 11
344.958298
 21
51.969023
 31
0.0
  0
LINE
  5
8BE
  8
0
 62
     0
 10
329.545934
 20
67.381387
 30
0.0
 11
315.069526
 21
81.857795
 31
0.0
  0
LINE
  5
8BF
  8
0
 62
     0
 10
339.108545
 20
59.72708
 30
0.0
 11
339.018768
 21
59.816857
 31
0.0
  0
LINE
  5
8C0
  8
0
 62
     0
 10
329.545934
 20
69.289691
 30
0.0
 11
315.901302
 21
82.934323
 31
0.0
  0
LINE
  5
8C1
  8
0
 62
     0
 10
341.016849
 20
59.72708
 30
0.0
 11
339.018768
 21
61.725161
 31
0.0
  0
LINE
  5
8C2
  8
0
 62
     0
 10
329.545934
 20
71.197995
 30
0.0
 11
317.809606
 21
82.934323
 31
0.0
  0
LINE
  5
8C3
  8
0
 62
     0
 10
342.925154
 20
59.72708
 30
0.0
 11
339.018768
 21
63.633465
 31
0.0
  0
LINE
  5
8C4
  8
0
 62
     0
 10
329.545934
 20
73.1063
 30
0.0
 11
319.717911
 21
82.934323
 31
0.0
  0
LINE
  5
8C5
  8
0
 62
     0
 10
344.833458
 20
59.72708
 30
0.0
 11
339.018768
 21
65.54177
 31
0.0
  0
LINE
  5
8C6
  8
0
 62
     0
 10
331.380269
 20
73.180269
 30
0.0
 11
321.626215
 21
82.934323
 31
0.0
  0
LINE
  5
8C7
  8
0
 62
     0
 10
345.901903
 20
60.56694
 30
0.0
 11
339.018768
 21
67.450074
 31
0.0
  0
LINE
  5
8C8
  8
0
 62
     0
 10
329.545934
 20
76.922909
 30
0.0
 11
323.534519
 21
82.934323
 31
0.0
  0
LINE
  5
8C9
  8
0
 62
     0
 10
333.288574
 20
73.180269
 30
0.0
 11
330.05711
 21
76.411733
 31
0.0
  0
LINE
  5
8CA
  8
0
 62
     0
 10
345.901903
 20
62.475244
 30
0.0
 11
339.018768
 21
69.358379
 31
0.0
  0
LINE
  5
8CB
  8
0
 62
     0
 10
329.545934
 20
78.831213
 30
0.0
 11
325.442824
 21
82.934323
 31
0.0
  0
LINE
  5
8CC
  8
0
 62
     0
 10
335.196878
 20
73.180269
 30
0.0
 11
330.807312
 21
77.569835
 31
0.0
  0
LINE
  5
8CD
  8
0
 62
     0
 10
345.901903
 20
64.383549
 30
0.0
 11
339.018768
 21
71.266683
 31
0.0
  0
LINE
  5
8CE
  8
0
 62
     0
 10
329.545934
 20
80.739518
 30
0.0
 11
327.351128
 21
82.934323
 31
0.0
  0
LINE
  5
8CF
  8
0
 62
     0
 10
337.105182
 20
73.180269
 30
0.0
 11
331.557514
 21
78.727937
 31
0.0
  0
LINE
  5
8D0
  8
0
 62
     0
 10
345.901903
 20
66.291853
 30
0.0
 11
339.018768
 21
73.174988
 31
0.0
  0
LINE
  5
8D1
  8
0
 62
     0
 10
329.545934
 20
82.647822
 30
0.0
 11
329.259433
 21
82.934323
 31
0.0
  0
LINE
  5
8D2
  8
0
 62
     0
 10
339.013487
 20
73.180269
 30
0.0
 11
332.307716
 21
79.88604
 31
0.0
  0
LINE
  5
8D3
  8
0
 62
     0
 10
345.901903
 20
68.200158
 30
0.0
 11
333.057919
 21
81.044142
 31
0.0
  0
LINE
  5
8D4
  8
0
 62
     0
 10
345.901903
 20
70.108462
 30
0.0
 11
333.808121
 21
82.202244
 31
0.0
  0
LINE
  5
8D5
  8
0
 62
     0
 10
345.901903
 20
72.016767
 30
0.0
 11
334.984346
 21
82.934323
 31
0.0
  0
LINE
  5
8D6
  8
0
 62
     0
 10
345.901903
 20
73.925071
 30
0.0
 11
336.89265
 21
82.934323
 31
0.0
  0
LINE
  5
8D7
  8
0
 62
     0
 10
345.901903
 20
75.833375
 30
0.0
 11
338.800955
 21
82.934323
 31
0.0
  0
LINE
  5
8D8
  8
0
 62
     0
 10
345.901903
 20
77.74168
 30
0.0
 11
340.709259
 21
82.934323
 31
0.0
  0
LINE
  5
8D9
  8
0
 62
     0
 10
345.901903
 20
79.649984
 30
0.0
 11
342.617564
 21
82.934323
 31
0.0
  0
LINE
  5
8DA
  8
0
 62
     0
 10
345.901903
 20
81.558289
 30
0.0
 11
344.525868
 21
82.934323
 31
0.0
  0
ENDBLK
  5
8DC
  8
0
  0
BLOCK
  8
0
  2
*D2
 70
     1
 10
0.0
 20
0.0
 30
0.0
  3
*D2
  1

  0
LINE
  5
13BF
  8
0
  6
BYBLOCK
 62
     0
 10
23.429153
 20
-0.102977
 30
0.0
 11
23.429153
 21
-1.962996
 31
0.0
  0
LINE
  5
13C0
  8
0
  6
BYBLOCK
 62
     0
 10
24.206153
 20
-0.217977
 30
0.0
 11
24.206153
 21
-1.962996
 31
0.0
  0
LINE
  5
13C1
  8
0
  6
BYBLOCK
 62
     0
 10
24.386153
 20
-1.782996
 30
0.0
 11
24.566153
 21
-1.782996
 31
0.0
  0
LINE
  5
13C2
  8
0
  6
BYBLOCK
 62
     0
 10
23.249153
 20
-1.782996
 30
0.0
 11
22.829569
 21
-1.782996
 31
0.0
  0
SOLID
  5
13C3
  8
0
  6
BYBLOCK
 62
     0
 10
24.386153
 20
-1.752996
 30
0.0
 11
24.386153
 21
-1.812996
 31
0.0
 12
24.206153
 22
-1.782996
 32
0.0
 13
24.206153
 23
-1.782996
 33
0.0
  0
SOLID
  5
13C4
  8
0
  6
BYBLOCK
 62
     0
 10
23.249153
 20
-1.752996
 30
0.0
 11
23.249153
 21
-1.812996
 31
0.0
 12
23.429153
 22
-1.782996
 32
0.0
 13
23.429153
 23
-1.782996
 33
0.0
  0
TEXT
  8
0
  40
0.125
  5
178E
  62
0
  72
0
  71
0
 10
22.0521
 20
-2.00425
 30
0.000000
  1
 0.78"
  0
TEXT
  8
0
  40
0.125
  5
178F
  62
0
  72
0
  71
0
 10
22.0521
 20
-2.16675
 30
0.000000
  1
 [19.7mm]
  0
POINT
  5
13C6
  8
DEFPOINTS
  6
BYBLOCK
 62
     0
 10
23.429153
 20
-0.040477
 30
0.0
  0
POINT
  5
13C7
  8
DEFPOINTS
  6
BYBLOCK
 62
     0
 10
24.206153
 20
-0.155477
 30
0.0
  0
POINT
  5
13C8
  8
DEFPOINTS
  6
BYBLOCK
 62
     0
 10
24.206153
 20
-1.782996
 30
0.0
  0
ENDBLK
  5
13C9
  8
0
  0
BLOCK
  8
0
  2
*D3
 70
     1
 10
0.0
 20
0.0
 30
0.0
  3
*D3
  1

  0
LINE
  5
13B3
  8
0
  6
BYBLOCK
 62
     0
 10
23.616153
 20
-0.317977
 30
0.0
 11
23.616153
 21
-1.252335
 31
0.0
  0
LINE
  5
13B4
  8
0
  6
BYBLOCK
 62
     0
 10
24.206153
 20
-0.184977
 30
0.0
 11
24.206153
 21
-1.252335
 31
0.0
  0
LINE
  5
13B5
  8
0
  6
BYBLOCK
 62
     0
 10
24.386153
 20
-1.072335
 30
0.0
 11
24.566153
 21
-1.072335
 31
0.0
  0
LINE
  5
13B6
  8
0
  6
BYBLOCK
 62
     0
 10
23.436153
 20
-1.072335
 30
0.0
 11
23.016569
 21
-1.072335
 31
0.0
  0
SOLID
  5
13B7
  8
0
  6
BYBLOCK
 62
     0
 10
24.386153
 20
-1.042335
 30
0.0
 11
24.386153
 21
-1.102335
 31
0.0
 12
24.206153
 22
-1.072335
 32
0.0
 13
24.206153
 23
-1.072335
 33
0.0
  0
SOLID
  5
13B8
  8
0
  6
BYBLOCK
 62
     0
 10
23.436153
 20
-1.042335
 30
0.0
 11
23.436153
 21
-1.102335
 31
0.0
 12
23.616153
 22
-1.072335
 32
0.0
 13
23.616153
 23
-1.072335
 33
0.0
  0
TEXT
  8
0
  40
0.125
  5
1790
  62
0
  72
0
  71
0
 10
22.2495
 20
-1.29359
 30
0.000000
  1
 0.59"
  0
TEXT
  8
0
  40
0.125
  5
1791
  62
0
  72
0
  71
0
 10
22.2495
 20
-1.45609
 30
0.000000
  1
 [15.0mm]
  0
POINT
  5
13BA
  8
DEFPOINTS
  6
BYBLOCK
 62
     0
 10
23.616153
 20
-0.255477
 30
0.0
  0
POINT
  5
13BB
  8
DEFPOINTS
  6
BYBLOCK
 62
     0
 10
24.206153
 20
-0.122477
 30
0.0
  0
POINT
  5
13BC
  8
DEFPOINTS
  6
BYBLOCK
 62
     0
 10
24.206153
 20
-1.072335
 30
0.0
  0
ENDBLK
  5
13BD
  8
0
  0
BLOCK
  8
0
  2
*D4
 70
     1
 10
0.0
 20
0.0
 30
0.0
  3
*D4
  1

  0
LINE
  5
13A7
  8
0
  6
BYBLOCK
 62
     0
 10
23.429153
 20
6.687023
 30
0.0
 11
23.429153
 21
8.249361
 31
0.0
  0
LINE
  5
13A8
  8
0
  6
BYBLOCK
 62
     0
 10
24.074153
 20
6.232023
 30
0.0
 11
24.074153
 21
8.249361
 31
0.0
  0
LINE
  5
13A9
  8
0
  6
BYBLOCK
 62
     0
 10
24.254153
 20
8.069361
 30
0.0
 11
24.434153
 21
8.069361
 31
0.0
  0
LINE
  5
13AA
  8
0
  6
BYBLOCK
 62
     0
 10
23.249153
 20
8.069361
 30
0.0
 11
22.829569
 21
8.069361
 31
0.0
  0
SOLID
  5
13AB
  8
0
  6
BYBLOCK
 62
     0
 10
24.254153
 20
8.099361
 30
0.0
 11
24.254153
 21
8.039361
 31
0.0
 12
24.074153
 22
8.069361
 32
0.0
 13
24.074153
 23
8.069361
 33
0.0
  0
SOLID
  5
13AC
  8
0
  6
BYBLOCK
 62
     0
 10
23.249153
 20
8.099361
 30
0.0
 11
23.249153
 21
8.039361
 31
0.0
 12
23.429153
 22
8.069361
 32
0.0
 13
23.429153
 23
8.069361
 33
0.0
  0
TEXT
  8
0
  40
0.125
  5
1792
  62
0
  72
0
  71
0
 10
22.0521
 20
7.84811
 30
0.000000
  1
 0.65"
  0
TEXT
  8
0
  40
0.125
  5
1793
  62
0
  72
0
  71
0
 10
22.0521
 20
7.68561
 30
0.000000
  1
 [16.4mm]
  0
POINT
  5
13AE
  8
DEFPOINTS
  6
BYBLOCK
 62
     0
 10
23.429153
 20
6.624523
 30
0.0
  0
POINT
  5
13AF
  8
DEFPOINTS
  6
BYBLOCK
 62
     0
 10
24.074153
 20
6.169523
 30
0.0
  0
POINT
  5
13B0
  8
DEFPOINTS
  6
BYBLOCK
 62
     0
 10
24.074153
 20
8.069361
 30
0.0
  0
ENDBLK
  5
13B1
  8
0
  0
BLOCK
  8
0
  2
*D5
 70
     1
 10
0.0
 20
0.0
 30
0.0
  3
*D5
  1

  0
LINE
  5
13F3
  8
0
  6
BYBLOCK
 62
     0
 10
21.059562
 20
6.169523
 30
0.0
 11
22.232694
 21
6.169523
 31
0.0
  0
LINE
  5
13F4
  8
0
  6
BYBLOCK
 62
     0
 10
21.173392
 20
0.323893
 30
0.0
 11
22.232694
 21
0.323893
 31
0.0
  0
LINE
  5
13F5
  8
0
  6
BYBLOCK
 62
     0
 10
22.052694
 20
5.989523
 30
0.0
 11
22.052694
 21
3.854553
 31
0.0
  0
LINE
  5
13F6
  8
0
  6
BYBLOCK
 62
     0
 10
22.052694
 20
0.503893
 30
0.0
 11
22.052694
 21
2.674553
 31
0.0
  0
SOLID
  5
13F7
  8
0
  6
BYBLOCK
 62
     0
 10
22.022694
 20
5.989523
 30
0.0
 11
22.082694
 21
5.989523
 31
0.0
 12
22.052694
 22
6.169523
 32
0.0
 13
22.052694
 23
6.169523
 33
0.0
  0
SOLID
  5
13F8
  8
0
  6
BYBLOCK
 62
     0
 10
22.022694
 20
0.503893
 30
0.0
 11
22.082694
 21
0.503893
 31
0.0
 12
22.052694
 22
0.323893
 32
0.0
 13
22.052694
 23
0.323893
 33
0.0
  0
TEXT
  8
0
  40
0.125
  5
1794
  62
0
  72
0
  71
0
 10
21.8027
 20
3.04330
 30
0.000000
  1
 5.85"
  0
TEXT
  8
0
  40
0.125
  5
1795
  62
0
  72
0
  71
0
 10
21.8027
 20
2.88080
 30
0.000000
  1
 [148.5mm]
  0
POINT
  5
13FA
  8
DEFPOINTS
  6
BYBLOCK
 62
     0
 10
20.997062
 20
6.169523
 30
0.0
  0
POINT
  5
13FB
  8
DEFPOINTS
  6
BYBLOCK
 62
     0
 10
21.110892
 20
0.323893
 30
0.0
  0
POINT
  5
13FC
  8
DEFPOINTS
  6
BYBLOCK
 62
     0
 10
22.052694
 20
0.323893
 30
0.0
  0
ENDBLK
  5
13FD
  8
0
  0
BLOCK
  8
0
  2
*D6
 70
     1
 10
0.0
 20
0.0
 30
0.0
  3
*D6
  1

  0
LINE
  5
13E7
  8
0
  6
BYBLOCK
 62
     0
 10
21.314662
 20
0.031023
 30
0.0
 11
22.907513
 21
0.031023
 31
0.0
  0
LINE
  5
13E8
  8
0
  6
BYBLOCK
 62
     0
 10
21.314662
 20
6.553023
 30
0.0
 11
22.907513
 21
6.553023
 31
0.0
  0
LINE
  5
13E9
  8
0
  6
BYBLOCK
 62
     0
 10
22.727513
 20
0.211023
 30
0.0
 11
22.727513
 21
2.674553
 31
0.0
  0
LINE
  5
13EA
  8
0
  6
BYBLOCK
 62
     0
 10
22.727513
 20
6.373023
 30
0.0
 11
22.727513
 21
3.854553
 31
0.0
  0
SOLID
  5
13EB
  8
0
  6
BYBLOCK
 62
     0
 10
22.697513
 20
0.211023
 30
0.0
 11
22.757513
 21
0.211023
 31
0.0
 12
22.727513
 22
0.031023
 32
0.0
 13
22.727513
 23
0.031023
 33
0.0
  0
SOLID
  5
13EC
  8
0
  6
BYBLOCK
 62
     0
 10
22.697513
 20
6.373023
 30
0.0
 11
22.757513
 21
6.373023
 31
0.0
 12
22.727513
 22
6.553023
 32
0.0
 13
22.727513
 23
6.553023
 33
0.0
  0
TEXT
  8
0
  40
0.125
  5
1796
  62
0
  72
0
  71
0
 10
22.4775
 20
3.04330
 30
0.000000
  1
 6.52"
  0
TEXT
  8
0
  40
0.125
  5
1797
  62
0
  72
0
  71
0
 10
22.4775
 20
2.88080
 30
0.000000
  1
 [165.7mm]
  0
POINT
  5
13EE
  8
DEFPOINTS
  6
BYBLOCK
 62
     0
 10
21.252162
 20
0.031023
 30
0.0
  0
POINT
  5
13EF
  8
DEFPOINTS
  6
BYBLOCK
 62
     0
 10
21.252162
 20
6.553023
 30
0.0
  0
POINT
  5
13F0
  8
DEFPOINTS
  6
BYBLOCK
 62
     0
 10
22.727513
 20
6.553023
 30
0.0
  0
ENDBLK
  5
13F1
  8
0
  0
BLOCK
  8
0
  2
*D7
 70
     1
 10
0.0
 20
0.0
 30
0.0
  3
*D7
  1

  0
LINE
  5
141B
  8
0
  6
BYBLOCK
 62
     0
 10
19.180162
 20
0.056123
 30
0.0
 11
19.180162
 21
-1.017989
 31
0.0
  0
LINE
  5
141C
  8
0
  6
BYBLOCK
 62
     0
 10
20.952792
 20
0.103293
 30
0.0
 11
20.952792
 21
-1.017989
 31
0.0
  0
LINE
  5
141D
  8
0
  6
BYBLOCK
 62
     0
 10
19.360162
 20
-0.837989
 30
0.0
 11
19.549
 21
-0.837989
 31
0.0
  0
LINE
  5
141E
  8
0
  6
BYBLOCK
 62
     0
 10
20.772792
 20
-0.837989
 30
0.0
 11
20.624833
 21
-0.837989
 31
0.0
  0
SOLID
  5
141F
  8
0
  6
BYBLOCK
 62
     0
 10
19.360162
 20
-0.807989
 30
0.0
 11
19.360162
 21
-0.867989
 31
0.0
 12
19.180162
 22
-0.837989
 32
0.0
 13
19.180162
 23
-0.837989
 33
0.0
  0
SOLID
  5
1420
  8
0
  6
BYBLOCK
 62
     0
 10
20.772792
 20
-0.807989
 30
0.0
 11
20.772792
 21
-0.867989
 31
0.0
 12
20.952792
 22
-0.837989
 32
0.0
 13
20.952792
 23
-0.837989
 33
0.0
  0
TEXT
  8
0
  40
0.125
  5
1798
  62
0
  72
0
  71
0
 10
19.8369
 20
-1.05924
 30
0.000000
  1
 1.77"
  0
TEXT
  8
0
  40
0.125
  5
1799
  62
0
  72
0
  71
0
 10
19.8369
 20
-1.22174
 30
0.000000
  1
 [45.0mm]
  0
POINT
  5
1422
  8
DEFPOINTS
  6
BYBLOCK
 62
     0
 10
19.180162
 20
0.118623
 30
0.0
  0
POINT
  5
1423
  8
DEFPOINTS
  6
BYBLOCK
 62
     0
 10
20.952792
 20
0.165793
 30
0.0
  0
POINT
  5
1424
  8
DEFPOINTS
  6
BYBLOCK
 62
     0
 10
20.952792
 20
-0.837989
 30
0.0
  0
ENDBLK
  5
1425
  8
0
  0
BLOCK
  8
0
  2
*D8
 70
     1
 10
0.0
 20
0.0
 30
0.0
  3
*D8
  1

  0
LINE
  5
1427
  8
0
  6
BYBLOCK
 62
     0
 10
21.252162
 20
-0.031477
 30
0.0
 11
21.252162
 21
-1.750586
 31
0.0
  0
LINE
  5
1428
  8
0
  6
BYBLOCK
 62
     0
 10
18.462162
 20
-0.031477
 30
0.0
 11
18.462162
 21
-1.750586
 31
0.0
  0
LINE
  5
1429
  8
0
  6
BYBLOCK
 62
     0
 10
21.072162
 20
-1.570586
 30
0.0
 11
20.507473
 21
-1.570586
 31
0.0
  0
LINE
  5
142A
  8
0
  6
BYBLOCK
 62
     0
 10
18.642162
 20
-1.570586
 30
0.0
 11
19.43164
 21
-1.570586
 31
0.0
  0
SOLID
  5
142B
  8
0
  6
BYBLOCK
 62
     0
 10
21.072162
 20
-1.540586
 30
0.0
 11
21.072162
 21
-1.600586
 31
0.0
 12
21.252162
 22
-1.570586
 32
0.0
 13
21.252162
 23
-1.570586
 33
0.0
  0
SOLID
  5
142C
  8
0
  6
BYBLOCK
 62
     0
 10
18.642162
 20
-1.540586
 30
0.0
 11
18.642162
 21
-1.600586
 31
0.0
 12
18.462162
 22
-1.570586
 32
0.0
 13
18.462162
 23
-1.570586
 33
0.0
  0
TEXT
  8
0
  40
0.125
  5
179A
  62
0
  72
0
  71
0
 10
19.7196
 20
-1.79184
 30
0.000000
  1
 2.79"
  0
TEXT
  8
0
  40
0.125
  5
179B
  62
0
  72
0
  71
0
 10
19.7196
 20
-1.95434
 30
0.000000
  1
 [70.9mm]
  0
POINT
  5
142E
  8
DEFPOINTS
  6
BYBLOCK
 62
     0
 10
21.252162
 20
0.031023
 30
0.0
  0
POINT
  5
142F
  8
DEFPOINTS
  6
BYBLOCK
 62
     0
 10
18.462162
 20
0.031023
 30
0.0
  0
POINT
  5
1430
  8
DEFPOINTS
  6
BYBLOCK
 62
     0
 10
18.462162
 20
-1.570586
 30
0.0
  0
ENDBLK
  5
1431
  8
0
  0
BLOCK
  8
0
  2
*D9
 70
     1
 10
0.0
 20
0.0
 30
0.0
  3
*D9
  1

  0
LINE
  5
1483
  8
0
  6
BYBLOCK
 62
     0
 10
18.777132
 20
6.549523
 30
0.0
 11
17.41302
 21
6.549523
 31
0.0
  0
LINE
  5
1484
  8
0
  6
BYBLOCK
 62
     0
 10
19.195762
 20
0.034523
 30
0.0
 11
17.41302
 21
0.034523
 31
0.0
  0
LINE
  5
1485
  8
0
  6
BYBLOCK
 62
     0
 10
17.59302
 20
6.369523
 30
0.0
 11
17.59302
 21
3.971769
 31
0.0
  0
LINE
  5
1486
  8
0
  6
BYBLOCK
 62
     0
 10
17.59302
 20
0.214523
 30
0.0
 11
17.59302
 21
2.791769
 31
0.0
  0
SOLID
  5
1487
  8
0
  6
BYBLOCK
 62
     0
 10
17.56302
 20
6.369523
 30
0.0
 11
17.62302
 21
6.369523
 31
0.0
 12
17.59302
 22
6.549523
 32
0.0
 13
17.59302
 23
6.549523
 33
0.0
  0
SOLID
  5
1488
  8
0
  6
BYBLOCK
 62
     0
 10
17.56302
 20
0.214523
 30
0.0
 11
17.62302
 21
0.214523
 31
0.0
 12
17.59302
 22
0.034523
 32
0.0
 13
17.59302
 23
0.034523
 33
0.0
  0
TEXT
  8
0
  40
0.125
  5
179C
  62
0
  72
0
  71
0
 10
17.3430
 20
3.16052
 30
0.000000
  1
 6.52"
  0
TEXT
  8
0
  40
0.125
  5
179D
  62
0
  72
0
  71
0
 10
17.3430
 20
2.99802
 30
0.000000
  1
 [165.5mm]
  0
POINT
  5
148A
  8
DEFPOINTS
  6
BYBLOCK
 62
     0
 10
18.839632
 20
6.549523
 30
0.0
  0
POINT
  5
148B
  8
DEFPOINTS
  6
BYBLOCK
 62
     0
 10
19.258262
 20
0.034523
 30
0.0
  0
POINT
  5
148C
  8
DEFPOINTS
  6
BYBLOCK
 62
     0
 10
17.59302
 20
0.034523
 30
0.0
  0
ENDBLK
  5
148D
  8
0
  0
BLOCK
  8
0
  2
*D10
 70
     1
 10
0.0
 20
0.0
 30
0.0
  3
*D10
  1

  0
LINE
  5
148F
  8
0
  6
BYBLOCK
 62
     0
 10
18.399662
 20
-0.255477
 30
0.0
 11
16.738201
 21
-0.255477
 31
0.0
  0
LINE
  5
1490
  8
0
  6
BYBLOCK
 62
     0
 10
18.355862
 20
6.839523
 30
0.0
 11
16.738201
 21
6.839523
 31
0.0
  0
LINE
  5
1491
  8
0
  6
BYBLOCK
 62
     0
 10
16.918201
 20
-0.075477
 30
0.0
 11
16.918201
 21
2.802186
 31
0.0
  0
LINE
  5
1492
  8
0
  6
BYBLOCK
 62
     0
 10
16.918201
 20
6.659523
 30
0.0
 11
16.918201
 21
3.961352
 31
0.0
  0
SOLID
  5
1493
  8
0
  6
BYBLOCK
 62
     0
 10
16.888201
 20
-0.075477
 30
0.0
 11
16.948201
 21
-0.075477
 31
0.0
 12
16.918201
 22
-0.255477
 32
0.0
 13
16.918201
 23
-0.255477
 33
0.0
  0
SOLID
  5
1494
  8
0
  6
BYBLOCK
 62
     0
 10
16.888201
 20
6.659523
 30
0.0
 11
16.948201
 21
6.659523
 31
0.0
 12
16.918201
 22
6.839523
 32
0.0
 13
16.918201
 23
6.839523
 33
0.0
  0
TEXT
  8
0
  40
0.125
  5
179E
  62
0
  72
0
  71
0
 10
16.6682
 20
3.16052
 30
0.000000
  1
 7.10"
  0
TEXT
  8
0
  40
0.125
  5
179F
  62
0
  72
0
  71
0
 10
16.6682
 20
2.99802
 30
0.000000
  1
 [180.2mm]
  0
POINT
  5
1496
  8
DEFPOINTS
  6
BYBLOCK
 62
     0
 10
18.462162
 20
-0.255477
 30
0.0
  0
POINT
  5
1497
  8
DEFPOINTS
  6
BYBLOCK
 62
     0
 10
18.418362
 20
6.839523
 30
0.0
  0
POINT
  5
1498
  8
DEFPOINTS
  6
BYBLOCK
 62
     0
 10
16.918201
 20
6.839523
 30
0.0
  0
ENDBLK
  5
1499
  8
0
  0
BLOCK
  8
0
  2
*D11
 70
     1
 10
0.0
 20
0.0
 30
0.0
  3
*D11
  1

  0
LINE
  5
1477
  8
0
  6
BYBLOCK
 62
     0
 10
18.472162
 20
6.244553
 30
0.0
 11
18.472162
 21
7.635008
 31
0.0
  0
LINE
  5
1478
  8
0
  6
BYBLOCK
 62
     0
 10
21.242162
 20
6.153923
 30
0.0
 11
21.242162
 21
7.635008
 31
0.0
  0
LINE
  5
1479
  8
0
  6
BYBLOCK
 62
     0
 10
18.652162
 20
7.455008
 30
0.0
 11
19.22626
 21
7.455008
 31
0.0
  0
LINE
  5
147A
  8
0
  6
BYBLOCK
 62
     0
 10
21.062162
 20
7.455008
 30
0.0
 11
20.302094
 21
7.455008
 31
0.0
  0
SOLID
  5
147B
  8
0
  6
BYBLOCK
 62
     0
 10
18.652162
 20
7.485008
 30
0.0
 11
18.652162
 21
7.425008
 31
0.0
 12
18.472162
 22
7.455008
 32
0.0
 13
18.472162
 23
7.455008
 33
0.0
  0
SOLID
  5
147C
  8
0
  6
BYBLOCK
 62
     0
 10
21.062162
 20
7.485008
 30
0.0
 11
21.062162
 21
7.425008
 31
0.0
 12
21.242162
 22
7.455008
 32
0.0
 13
21.242162
 23
7.455008
 33
0.0
  0
TEXT
  8
0
  40
0.125
  5
17A0
  62
0
  72
0
  71
0
 10
19.5142
 20
7.23376
 30
0.000000
  1
 2.77"
  0
TEXT
  8
0
  40
0.125
  5
17A1
  62
0
  72
0
  71
0
 10
19.5142
 20
7.07126
 30
0.000000
  1
 [70.4mm]
  0
POINT
  5
147E
  8
DEFPOINTS
  6
BYBLOCK
 62
     0
 10
18.472162
 20
6.182053
 30
0.0
  0
POINT
  5
147F
  8
DEFPOINTS
  6
BYBLOCK
 62
     0
 10
21.242162
 20
6.091423
 30
0.0
  0
POINT
  5
1480
  8
DEFPOINTS
  6
BYBLOCK
 62
     0
 10
21.242162
 20
7.455008
 30
0.0
  0
ENDBLK
  5
1481
  8
0
  0
BLOCK
  8
0
  2
*D12
 70
     1
 10
0.0
 20
0.0
 30
0.0
  3
*D12
  1

  0
LINE
  5
146B
  8
0
  6
BYBLOCK
 62
     0
 10
21.532162
 20
6.615523
 30
0.0
 11
21.532162
 21
8.367605
 31
0.0
  0
LINE
  5
146C
  8
0
  6
BYBLOCK
 62
     0
 10
18.182162
 20
6.665823
 30
0.0
 11
18.182162
 21
8.367605
 31
0.0
  0
LINE
  5
146D
  8
0
  6
BYBLOCK
 62
     0
 10
21.352162
 20
8.187605
 30
0.0
 11
20.379697
 21
8.187605
 31
0.0
  0
LINE
  5
146E
  8
0
  6
BYBLOCK
 62
     0
 10
18.362162
 20
8.187605
 30
0.0
 11
19.324697
 21
8.187605
 31
0.0
  0
SOLID
  5
146F
  8
0
  6
BYBLOCK
 62
     0
 10
21.352162
 20
8.217605
 30
0.0
 11
21.352162
 21
8.157605
 31
0.0
 12
21.532162
 22
8.187605
 32
0.0
 13
21.532162
 23
8.187605
 33
0.0
  0
SOLID
  5
1470
  8
0
  6
BYBLOCK
 62
     0
 10
18.362162
 20
8.217605
 30
0.0
 11
18.362162
 21
8.157605
 31
0.0
 12
18.182162
 22
8.187605
 32
0.0
 13
18.182162
 23
8.187605
 33
0.0
  0
TEXT
  8
0
  40
0.125
  5
17A2
  62
0
  72
0
  71
0
 10
19.6022
 20
7.96636
 30
0.000000
  1
 3.35"
  0
TEXT
  8
0
  40
0.125
  5
17A3
  62
0
  72
0
  71
0
 10
19.6022
 20
7.80386
 30
0.000000
  1
 [85.1mm]
  0
POINT
  5
1472
  8
DEFPOINTS
  6
BYBLOCK
 62
     0
 10
21.532162
 20
6.553023
 30
0.0
  0
POINT
  5
1473
  8
DEFPOINTS
  6
BYBLOCK
 62
     0
 10
18.182162
 20
6.603323
 30
0.0
  0
POINT
  5
1474
  8
DEFPOINTS
  6
BYBLOCK
 62
     0
 10
18.182162
 20
8.187605
 30
0.0
  0
ENDBLK
  5
1475
  8
0
  0
BLOCK
  8
0
  2
*D13
 70
     1
 10
0.0
 20
0.0
 30
0.0
  3
*D13
  1

  0
LINE
  5
14A6
  8
0
  6
BYBLOCK
 62
     0
 10
19.210596
 20
0.465014
 30
0.0
 11
19.446961
 21
0.715905
 31
0.0
  0
LINE
  5
14A7
  8
0
  6
BYBLOCK
 62
     0
 10
19.446961
 20
0.715905
 30
0.0
 11
19.626961
 21
0.715905
 31
0.0
  0
SOLID
  5
14A8
  8
0
  6
BYBLOCK
 62
     0
 10
19.18876
 20
0.485585
 30
0.0
 11
19.232432
 21
0.444442
 31
0.0
 12
19.087167
 22
0.333998
 32
0.0
 13
19.087167
 23
0.333998
 33
0.0
  0
TEXT
  8
0
  40
0.125
  5
17A4
  62
0
  72
0
  71
0
 10
19.9253
 20
0.494655
 30
0.000000
  1
 R0.30"
  0
TEXT
  8
0
  40
0.125
  5
17A5
  62
0
  72
0
  71
0
 10
19.9253
 20
0.332155
 30
0.000000
  1
 [R7.5mm]
  0
POINT
  5
14AA
  8
DEFPOINTS
  6
BYBLOCK
 62
     0
 10
19.087167
 20
0.333998
 30
0.0
  0
POINT
  5
14AB
  8
DEFPOINTS
  6
BYBLOCK
 62
     0
 10
18.884262
 20
0.118623
 30
0.0
  0
ENDBLK
  5
14AC
  8
0
  0
BLOCK
  8
0
  2
*D14
 70
     1
 10
0.0
 20
0.0
 30
0.0
  3
*D14
  1

  0
LINE
  5
14B8
  8
0
  6
BYBLOCK
 62
     0
 10
18.148215
 20
-0.335889
 30
0.0
 11
17.694798
 21
-0.867293
 31
0.0
  0
LINE
  5
14B9
  8
0
  6
BYBLOCK
 62
     0
 10
17.694798
 20
-0.867293
 30
0.0
 11
17.514798
 21
-0.867293
 31
0.0
  0
SOLID
  5
14BA
  8
0
  6
BYBLOCK
 62
     0
 10
18.125393
 20
-0.316417
 30
0.0
 11
18.171037
 21
-0.355362
 31
0.0
 12
18.265049
 22
-0.19896
 32
0.0
 13
18.265049
 23
-0.19896
 33
0.0
  0
TEXT
  8
0
  40
0.125
  5
17A6
  62
0
  72
0
  71
0
 10
16.7269
 20
-1.08854
 30
0.000000
  1
 R0.24"
  0
TEXT
  8
0
  40
0.125
  5
17A7
  62
0
  72
0
  71
0
 10
16.7269
 20
-1.25104
 30
0.000000
  1
 [R6.0mm]
  0
POINT
  5
14BC
  8
DEFPOINTS
  6
BYBLOCK
 62
     0
 10
18.265049
 20
-0.19896
 30
0.0
  0
POINT
  5
14BD
  8
DEFPOINTS
  6
BYBLOCK
 62
     0
 10
18.418362
 20
-0.019277
 30
0.0
  0
ENDBLK
  5
14BE
  8
0
  0
BLOCK
  8
0
  2
*D15
 70
     1
 10
0.0
 20
0.0
 30
0.0
  3
*D15
  1

  0
LINE
  5
14CE
  8
0
  6
BYBLOCK
 62
     0
 10
14.030525
 20
6.709523
 30
0.0
 11
14.686817
 21
6.709523
 31
0.0
  0
LINE
  5
14CF
  8
0
  6
BYBLOCK
 62
     0
 10
14.030525
 20
-0.125477
 30
0.0
 11
14.686817
 21
-0.125477
 31
0.0
  0
LINE
  5
14D0
  8
0
  6
BYBLOCK
 62
     0
 10
14.506817
 20
6.529523
 30
0.0
 11
14.506817
 21
3.90004
 31
0.0
  0
LINE
  5
14D1
  8
0
  6
BYBLOCK
 62
     0
 10
14.506817
 20
0.054523
 30
0.0
 11
14.506817
 21
2.72004
 31
0.0
  0
SOLID
  5
14D2
  8
0
  6
BYBLOCK
 62
     0
 10
14.476817
 20
6.529523
 30
0.0
 11
14.536817
 21
6.529523
 31
0.0
 12
14.506817
 22
6.709523
 32
0.0
 13
14.506817
 23
6.709523
 33
0.0
  0
SOLID
  5
14D3
  8
0
  6
BYBLOCK
 62
     0
 10
14.476817
 20
0.054523
 30
0.0
 11
14.536817
 21
0.054523
 31
0.0
 12
14.506817
 22
-0.125477
 32
0.0
 13
14.506817
 23
-0.125477
 33
0.0
  0
TEXT
  8
0
  40
0.125
  5
17A8
  62
0
  72
0
  71
0
 10
14.2568
 20
3.08879
 30
0.000000
  1
 6.84"
  0
TEXT
  8
0
  40
0.125
  5
17A9
  62
0
  72
0
  71
0
 10
14.2568
 20
2.92629
 30
0.000000
  1
 [173.6mm]
  0
POINT
  5
14D5
  8
DEFPOINTS
  6
BYBLOCK
 62
     0
 10
13.968025
 20
6.709523
 30
0.0
  0
POINT
  5
14D6
  8
DEFPOINTS
  6
BYBLOCK
 62
     0
 10
13.968025
 20
-0.125477
 30
0.0
  0
POINT
  5
14D7
  8
DEFPOINTS
  6
BYBLOCK
 62
     0
 10
14.506817
 20
-0.125477
 30
0.0
  0
ENDBLK
  5
14D8
  8
0
  0
BLOCK
  8
0
  2
*D16
 70
     1
 10
0.0
 20
0.0
 30
0.0
  3
*D16
  1

  0
LINE
  5
14E8
  8
0
  6
BYBLOCK
 62
     0
 10
5.687232
 20
11.75424
 30
0.0
 11
5.687232
 21
12.506319
 31
0.0
  0
LINE
  5
14E9
  8
0
  6
BYBLOCK
 62
     0
 10
8.777232
 20
11.75424
 30
0.0
 11
8.777232
 21
12.506319
 31
0.0
  0
LINE
  5
14EA
  8
0
  6
BYBLOCK
 62
     0
 10
5.867232
 20
12.326319
 30
0.0
 11
6.645209
 21
12.326319
 31
0.0
  0
LINE
  5
14EB
  8
0
  6
BYBLOCK
 62
     0
 10
8.597232
 20
12.326319
 30
0.0
 11
7.741876
 21
12.326319
 31
0.0
  0
SOLID
  5
14EC
  8
0
  6
BYBLOCK
 62
     0
 10
5.867232
 20
12.356319
 30
0.0
 11
5.867232
 21
12.296319
 31
0.0
 12
5.687232
 22
12.326319
 32
0.0
 13
5.687232
 23
12.326319
 33
0.0
  0
SOLID
  5
14ED
  8
0
  6
BYBLOCK
 62
     0
 10
8.597232
 20
12.356319
 30
0.0
 11
8.597232
 21
12.296319
 31
0.0
 12
8.777232
 22
12.326319
 32
0.0
 13
8.777232
 23
12.326319
 33
0.0
  0
TEXT
  8
0
  40
0.125
  5
17AA
  62
0
  72
0
  71
0
 10
6.94354
 20
12.1051
 30
0.000000
  1
 3.09"
  0
TEXT
  8
0
  40
0.125
  5
17AB
  62
0
  72
0
  71
0
 10
6.94354
 20
11.9426
 30
0.000000
  1
 [78.5mm]
  0
POINT
  5
14EF
  8
DEFPOINTS
  6
BYBLOCK
 62
     0
 10
5.687232
 20
11.69174
 30
0.0
  0
POINT
  5
14F0
  8
DEFPOINTS
  6
BYBLOCK
 62
     0
 10
8.777232
 20
11.69174
 30
0.0
  0
POINT
  5
14F1
  8
DEFPOINTS
  6
BYBLOCK
 62
     0
 10
8.777232
 20
12.326319
 30
0.0
  0
ENDBLK
  5
14F2
  8
0
  0
BLOCK
  8
0
  2
*D17
 70
     1
 10
0.0
 20
0.0
 30
0.0
  3
*D17
  1

  0
LINE
  5
151E
  8
0
  6
BYBLOCK
 62
     0
 10
6.096602
 20
0.050123
 30
0.0
 11
6.096602
 21
-0.848531
 31
0.0
  0
LINE
  5
151F
  8
0
  6
BYBLOCK
 62
     0
 10
7.949232
 20
0.053123
 30
0.0
 11
7.949232
 21
-0.848531
 31
0.0
  0
LINE
  5
1520
  8
0
  6
BYBLOCK
 62
     0
 10
6.276602
 20
-0.668531
 30
0.0
 11
6.517578
 21
-0.668531
 31
0.0
  0
LINE
  5
1521
  8
0
  6
BYBLOCK
 62
     0
 10
7.769232
 20
-0.668531
 30
0.0
 11
7.572578
 21
-0.668531
 31
0.0
  0
SOLID
  5
1522
  8
0
  6
BYBLOCK
 62
     0
 10
6.276602
 20
-0.638531
 30
0.0
 11
6.276602
 21
-0.698531
 31
0.0
 12
6.096602
 22
-0.668531
 32
0.0
 13
6.096602
 23
-0.668531
 33
0.0
  0
SOLID
  5
1523
  8
0
  6
BYBLOCK
 62
     0
 10
7.769232
 20
-0.638531
 30
0.0
 11
7.769232
 21
-0.698531
 31
0.0
 12
7.949232
 22
-0.668531
 32
0.0
 13
7.949232
 23
-0.668531
 33
0.0
  0
TEXT
  8
0
  40
0.125
  5
17AC
  62
0
  72
0
  71
0
 10
6.79508
 20
-0.889781
 30
0.000000
  1
 1.85"
  0
TEXT
  8
0
  40
0.125
  5
17AD
  62
0
  72
0
  71
0
 10
6.79508
 20
-1.05228
 30
0.000000
  1
 [47.1mm]
  0
POINT
  5
1525
  8
DEFPOINTS
  6
BYBLOCK
 62
     0
 10
6.096602
 20
0.112623
 30
0.0
  0
POINT
  5
1526
  8
DEFPOINTS
  6
BYBLOCK
 62
     0
 10
7.949232
 20
0.115623
 30
0.0
  0
POINT
  5
1527
  8
DEFPOINTS
  6
BYBLOCK
 62
     0
 10
7.949232
 20
-0.668531
 30
0.0
  0
ENDBLK
  5
1528
  8
0
  0
BLOCK
  8
0
  2
*D18
 70
     1
 10
0.0
 20
0.0
 30
0.0
  3
*D18
  1

  0
LINE
  5
152A
  8
0
  6
BYBLOCK
 62
     0
 10
8.657232
 20
0.430123
 30
0.0
 11
8.657232
 21
-1.596441
 31
0.0
  0
LINE
  5
152B
  8
0
  6
BYBLOCK
 62
     0
 10
5.807232
 20
0.339493
 30
0.0
 11
5.807232
 21
-1.596441
 31
0.0
  0
LINE
  5
152C
  8
0
  6
BYBLOCK
 62
     0
 10
8.477232
 20
-1.416441
 30
0.0
 11
7.830541
 21
-1.416441
 31
0.0
  0
LINE
  5
152D
  8
0
  6
BYBLOCK
 62
     0
 10
5.987232
 20
-1.416441
 30
0.0
 11
6.733875
 21
-1.416441
 31
0.0
  0
SOLID
  5
152E
  8
0
  6
BYBLOCK
 62
     0
 10
8.477232
 20
-1.386441
 30
0.0
 11
8.477232
 21
-1.446441
 31
0.0
 12
8.657232
 22
-1.416441
 32
0.0
 13
8.657232
 23
-1.416441
 33
0.0
  0
SOLID
  5
152F
  8
0
  6
BYBLOCK
 62
     0
 10
5.987232
 20
-1.386441
 30
0.0
 11
5.987232
 21
-1.446441
 31
0.0
 12
5.807232
 22
-1.416441
 32
0.0
 13
5.807232
 23
-1.416441
 33
0.0
  0
TEXT
  8
0
  40
0.125
  5
17AE
  62
0
  72
0
  71
0
 10
7.03221
 20
-1.63769
 30
0.000000
  1
 2.85"
  0
TEXT
  8
0
  40
0.125
  5
17AF
  62
0
  72
0
  71
0
 10
7.03221
 20
-1.80019
 30
0.000000
  1
 [72.4mm]
  0
POINT
  5
1531
  8
DEFPOINTS
  6
BYBLOCK
 62
     0
 10
8.657232
 20
0.492623
 30
0.0
  0
POINT
  5
1532
  8
DEFPOINTS
  6
BYBLOCK
 62
     0
 10
5.807232
 20
0.401993
 30
0.0
  0
POINT
  5
1533
  8
DEFPOINTS
  6
BYBLOCK
 62
     0
 10
5.807232
 20
-1.416441
 30
0.0
  0
ENDBLK
  5
1534
  8
0
  0
BLOCK
  8
0
  2
*D19
 70
     1
 10
0.0
 20
0.0
 30
0.0
  3
*D19
  1

  0
LINE
  5
1536
  8
0
  6
BYBLOCK
 62
     0
 10
8.907232
 20
-0.081777
 30
0.0
 11
8.907232
 21
-2.381745
 31
0.0
  0
LINE
  5
1537
  8
0
  6
BYBLOCK
 62
     0
 10
5.557232
 20
-0.081777
 30
0.0
 11
5.557232
 21
-2.381745
 31
0.0
  0
LINE
  5
1538
  8
0
  6
BYBLOCK
 62
     0
 10
8.727232
 20
-2.201745
 30
0.0
 11
7.87211
 21
-2.201745
 31
0.0
  0
LINE
  5
1539
  8
0
  6
BYBLOCK
 62
     0
 10
5.737232
 20
-2.201745
 30
0.0
 11
6.81711
 21
-2.201745
 31
0.0
  0
SOLID
  5
153A
  8
0
  6
BYBLOCK
 62
     0
 10
8.727232
 20
-2.171745
 30
0.0
 11
8.727232
 21
-2.231745
 31
0.0
 12
8.907232
 22
-2.201745
 32
0.0
 13
8.907232
 23
-2.201745
 33
0.0
  0
SOLID
  5
153B
  8
0
  6
BYBLOCK
 62
     0
 10
5.737232
 20
-2.171745
 30
0.0
 11
5.737232
 21
-2.231745
 31
0.0
 12
5.557232
 22
-2.201745
 32
0.0
 13
5.557232
 23
-2.201745
 33
0.0
  0
TEXT
  8
0
  40
0.125
  5
17B0
  62
0
  72
0
  71
0
 10
7.09461
 20
-2.42299
 30
0.000000
  1
 3.35"
  0
TEXT
  8
0
  40
0.125
  5
17B1
  62
0
  72
0
  71
0
 10
7.09461
 20
-2.58549
 30
0.000000
  1
 [85.1mm]
  0
POINT
  5
153D
  8
DEFPOINTS
  6
BYBLOCK
 62
     0
 10
8.907232
 20
-0.019277
 30
0.0
  0
POINT
  5
153E
  8
DEFPOINTS
  6
BYBLOCK
 62
     0
 10
5.557232
 20
-0.019277
 30
0.0
  0
POINT
  5
153F
  8
DEFPOINTS
  6
BYBLOCK
 62
     0
 10
5.557232
 20
-2.201745
 30
0.0
  0
ENDBLK
  5
1540
  8
0
  0
BLOCK
  8
0
  2
*D20
 70
     1
 10
0.0
 20
0.0
 30
0.0
  3
*D20
  1

  0
LINE
  5
155E
  8
0
  6
BYBLOCK
 62
     0
 10
8.204232
 20
6.453523
 30
0.0
 11
8.204232
 21
7.701074
 31
0.0
  0
LINE
  5
155F
  8
0
  6
BYBLOCK
 62
     0
 10
7.232232
 20
6.453523
 30
0.0
 11
7.232232
 21
7.701074
 31
0.0
  0
LINE
  5
1560
  8
0
  6
BYBLOCK
 62
     0
 10
7.052232
 20
7.521074
 30
0.0
 11
6.872232
 21
7.521074
 31
0.0
  0
LINE
  5
1561
  8
0
  6
BYBLOCK
 62
     0
 10
8.384232
 20
7.521074
 30
0.0
 11
8.803815
 21
7.521074
 31
0.0
  0
SOLID
  5
1562
  8
0
  6
BYBLOCK
 62
     0
 10
7.052232
 20
7.551074
 30
0.0
 11
7.052232
 21
7.491074
 31
0.0
 12
7.232232
 22
7.521074
 32
0.0
 13
7.232232
 23
7.521074
 33
0.0
  0
SOLID
  5
1563
  8
0
  6
BYBLOCK
 62
     0
 10
8.384232
 20
7.551074
 30
0.0
 11
8.384232
 21
7.491074
 31
0.0
 12
8.204232
 22
7.521074
 32
0.0
 13
8.204232
 23
7.521074
 33
0.0
  0
TEXT
  8
0
  40
0.125
  5
17B2
  62
0
  72
0
  71
0
 10
9.10215
 20
7.29982
 30
0.000000
  1
 0.97"
  0
TEXT
  8
0
  40
0.125
  5
17B3
  62
0
  72
0
  71
0
 10
9.10215
 20
7.13732
 30
0.000000
  1
 [24.7mm]
  0
POINT
  5
1565
  8
DEFPOINTS
  6
BYBLOCK
 62
     0
 10
8.204232
 20
6.391023
 30
0.0
  0
POINT
  5
1566
  8
DEFPOINTS
  6
BYBLOCK
 62
     0
 10
7.232232
 20
6.391023
 30
0.0
  0
POINT
  5
1567
  8
DEFPOINTS
  6
BYBLOCK
 62
     0
 10
7.232232
 20
7.521074
 30
0.0
  0
ENDBLK
  5
1568
  8
0
  0
BLOCK
  8
0
  2
*D21
 70
     1
 10
0.0
 20
0.0
 30
0.0
  3
*D21
  1

  0
LINE
  5
1584
  8
0
  6
BYBLOCK
 62
     0
 10
5.837232
 20
6.615523
 30
0.0
 11
5.837232
 21
8.61103
 31
0.0
  0
LINE
  5
1585
  8
0
  6
BYBLOCK
 62
     0
 10
8.627232
 20
6.615523
 30
0.0
 11
8.627232
 21
8.61103
 31
0.0
  0
LINE
  5
1586
  8
0
  6
BYBLOCK
 62
     0
 10
6.017232
 20
8.43103
 30
0.0
 11
6.681889
 21
8.43103
 31
0.0
  0
LINE
  5
1587
  8
0
  6
BYBLOCK
 62
     0
 10
8.447232
 20
8.43103
 30
0.0
 11
7.757722
 21
8.43103
 31
0.0
  0
SOLID
  5
1588
  8
0
  6
BYBLOCK
 62
     0
 10
6.017232
 20
8.46103
 30
0.0
 11
6.017232
 21
8.40103
 31
0.0
 12
5.837232
 22
8.43103
 32
0.0
 13
5.837232
 23
8.43103
 33
0.0
  0
SOLID
  5
1589
  8
0
  6
BYBLOCK
 62
     0
 10
8.447232
 20
8.46103
 30
0.0
 11
8.447232
 21
8.40103
 31
0.0
 12
8.627232
 22
8.43103
 32
0.0
 13
8.627232
 23
8.43103
 33
0.0
  0
TEXT
  8
0
  40
0.125
  5
17B4
  62
0
  72
0
  71
0
 10
6.96981
 20
8.20978
 30
0.000000
  1
 2.79"
  0
TEXT
  8
0
  40
0.125
  5
17B5
  62
0
  72
0
  71
0
 10
6.96981
 20
8.04728
 30
0.000000
  1
 [70.9mm]
  0
POINT
  5
158B
  8
DEFPOINTS
  6
BYBLOCK
 62
     0
 10
5.837232
 20
6.553023
 30
0.0
  0
POINT
  5
158C
  8
DEFPOINTS
  6
BYBLOCK
 62
     0
 10
8.627232
 20
6.553023
 30
0.0
  0
POINT
  5
158D
  8
DEFPOINTS
  6
BYBLOCK
 62
     0
 10
8.627232
 20
8.43103
 30
0.0
  0
ENDBLK
  5
158E
  8
0
  0
BLOCK
  8
0
  2
*D22
 70
     1
 10
0.0
 20
0.0
 30
0.0
  3
*D22
  1

  0
LINE
  5
159E
  8
0
  6
BYBLOCK
 62
     0
 10
7.232232
 20
6.453523
 30
0.0
 11
7.232232
 21
7.489166
 31
0.0
  0
LINE
  5
159F
  8
0
  6
BYBLOCK
 62
     0
 10
6.626232
 20
6.453523
 30
0.0
 11
6.626232
 21
7.489166
 31
0.0
  0
LINE
  5
15A0
  8
0
  6
BYBLOCK
 62
     0
 10
7.412232
 20
7.309166
 30
0.0
 11
7.592232
 21
7.309166
 31
0.0
  0
LINE
  5
15A1
  8
0
  6
BYBLOCK
 62
     0
 10
6.446232
 20
7.309166
 30
0.0
 11
5.775386
 21
7.309166
 31
0.0
  0
SOLID
  5
15A2
  8
0
  6
BYBLOCK
 62
     0
 10
7.412232
 20
7.339166
 30
0.0
 11
7.412232
 21
7.279166
 31
0.0
 12
7.232232
 22
7.309166
 32
0.0
 13
7.232232
 23
7.309166
 33
0.0
  0
SOLID
  5
15A3
  8
0
  6
BYBLOCK
 62
     0
 10
6.446232
 20
7.339166
 30
0.0
 11
6.446232
 21
7.279166
 31
0.0
 12
6.626232
 22
7.309166
 32
0.0
 13
6.626232
 23
7.309166
 33
0.0
  0
TEXT
  8
0
  40
0.125
  5
17B6
  62
0
  72
0
  71
0
 10
4.99789
 20
7.08792
 30
0.000000
  1
 0.61"
  0
TEXT
  8
0
  40
0.125
  5
17B7
  62
0
  72
0
  71
0
 10
4.99789
 20
6.92542
 30
0.000000
  1
 [15.4mm]
  0
POINT
  5
15A5
  8
DEFPOINTS
  6
BYBLOCK
 62
     0
 10
7.232232
 20
6.391023
 30
0.0
  0
POINT
  5
15A6
  8
DEFPOINTS
  6
BYBLOCK
 62
     0
 10
6.626232
 20
6.391023
 30
0.0
  0
POINT
  5
15A7
  8
DEFPOINTS
  6
BYBLOCK
 62
     0
 10
6.626232
 20
7.309166
 30
0.0
  0
ENDBLK
  5
15A8
  8
0
  0
BLOCK
  8
0
  2
*D23
 70
     1
 10
0.0
 20
0.0
 30
0.0
  3
*D23
  1

  0
LINE
  5
15D3
  8
0
  6
BYBLOCK
 62
     0
 10
8.689732
 20
6.553023
 30
0.0
 11
9.590383
 21
6.553023
 31
0.0
  0
LINE
  5
15D4
  8
0
  6
BYBLOCK
 62
     0
 10
8.689732
 20
0.031023
 30
0.0
 11
9.590383
 21
0.031023
 31
0.0
  0
LINE
  5
15D5
  8
0
  6
BYBLOCK
 62
     0
 10
9.410383
 20
6.373023
 30
0.0
 11
9.410383
 21
3.974812
 31
0.0
  0
LINE
  5
15D6
  8
0
  6
BYBLOCK
 62
     0
 10
9.410383
 20
0.211023
 30
0.0
 11
9.410383
 21
2.794812
 31
0.0
  0
SOLID
  5
15D7
  8
0
  6
BYBLOCK
 62
     0
 10
9.380383
 20
6.373023
 30
0.0
 11
9.440383
 21
6.373023
 31
0.0
 12
9.410383
 22
6.553023
 32
0.0
 13
9.410383
 23
6.553023
 33
0.0
  0
SOLID
  5
15D8
  8
0
  6
BYBLOCK
 62
     0
 10
9.380383
 20
0.211023
 30
0.0
 11
9.440383
 21
0.211023
 31
0.0
 12
9.410383
 22
0.031023
 32
0.0
 13
9.410383
 23
0.031023
 33
0.0
  0
TEXT
  8
0
  40
0.125
  5
17B8
  62
0
  72
0
  71
0
 10
9.16038
 20
3.16356
 30
0.000000
  1
 6.52"
  0
TEXT
  8
0
  40
0.125
  5
17B9
  62
0
  72
0
  71
0
 10
9.16038
 20
3.00106
 30
0.000000
  1
 [165.7mm]
  0
POINT
  5
15DA
  8
DEFPOINTS
  6
BYBLOCK
 62
     0
 10
8.627232
 20
6.553023
 30
0.0
  0
POINT
  5
15DB
  8
DEFPOINTS
  6
BYBLOCK
 62
     0
 10
8.627232
 20
0.031023
 30
0.0
  0
POINT
  5
15DC
  8
DEFPOINTS
  6
BYBLOCK
 62
     0
 10
9.410383
 20
0.031023
 30
0.0
  0
ENDBLK
  5
15DD
  8
0
  0
BLOCK
  8
0
  2
*D24
 70
     1
 10
0.0
 20
0.0
 30
0.0
  3
*D24
  1

  0
LINE
  5
15C7
  8
0
  6
BYBLOCK
 62
     0
 10
8.266732
 20
6.589523
 30
0.0
 11
10.249451
 21
6.589523
 31
0.0
  0
LINE
  5
15C8
  8
0
  6
BYBLOCK
 62
     0
 10
7.893632
 20
-0.005477
 30
0.0
 11
10.249451
 21
-0.005477
 31
0.0
  0
LINE
  5
15C9
  8
0
  6
BYBLOCK
 62
     0
 10
10.069451
 20
6.409523
 30
0.0
 11
10.069451
 21
3.954241
 31
0.0
  0
LINE
  5
15CA
  8
0
  6
BYBLOCK
 62
     0
 10
10.069451
 20
0.174523
 30
0.0
 11
10.069451
 21
2.774241
 31
0.0
  0
SOLID
  5
15CB
  8
0
  6
BYBLOCK
 62
     0
 10
10.039451
 20
6.409523
 30
0.0
 11
10.099451
 21
6.409523
 31
0.0
 12
10.069451
 22
6.589523
 32
0.0
 13
10.069451
 23
6.589523
 33
0.0
  0
SOLID
  5
15CC
  8
0
  6
BYBLOCK
 62
     0
 10
10.039451
 20
0.174523
 30
0.0
 11
10.099451
 21
0.174523
 31
0.0
 12
10.069451
 22
-0.005477
 32
0.0
 13
10.069451
 23
-0.005477
 33
0.0
  0
TEXT
  8
0
  40
0.125
  5
17BA
  62
0
  72
0
  71
0
 10
9.81945
 20
3.14299
 30
0.000000
  1
 6.60"
  0
TEXT
  8
0
  40
0.125
  5
17BB
  62
0
  72
0
  71
0
 10
9.81945
 20
2.98049
 30
0.000000
  1
 [167.5mm]
  0
POINT
  5
15CE
  8
DEFPOINTS
  6
BYBLOCK
 62
     0
 10
8.204232
 20
6.589523
 30
0.0
  0
POINT
  5
15CF
  8
DEFPOINTS
  6
BYBLOCK
 62
     0
 10
7.831132
 20
-0.005477
 30
0.0
  0
POINT
  5
15D0
  8
DEFPOINTS
  6
BYBLOCK
 62
     0
 10
10.069451
 20
-0.005477
 30
0.0
  0
ENDBLK
  5
15D1
  8
0
  0
BLOCK
  8
0
  2
*D25
 70
     1
 10
0.0
 20
0.0
 30
0.0
  3
*D25
  1

  0
LINE
  5
1609
  8
0
  6
BYBLOCK
 62
     0
 10
13.462634
 20
-0.187977
 30
0.0
 11
13.462634
 21
-1.348033
 31
0.0
  0
LINE
  5
160A
  8
0
  6
BYBLOCK
 62
     0
 10
11.452634
 20
-0.317977
 30
0.0
 11
11.452634
 21
-1.348033
 31
0.0
  0
LINE
  5
160B
  8
0
  6
BYBLOCK
 62
     0
 10
13.282634
 20
-1.168033
 30
0.0
 11
13.02465
 21
-1.168033
 31
0.0
  0
LINE
  5
160C
  8
0
  6
BYBLOCK
 62
     0
 10
11.632634
 20
-1.168033
 30
0.0
 11
12.011316
 21
-1.168033
 31
0.0
  0
SOLID
  5
160D
  8
0
  6
BYBLOCK
 62
     0
 10
13.282634
 20
-1.138033
 30
0.0
 11
13.282634
 21
-1.198033
 31
0.0
 12
13.462634
 22
-1.168033
 32
0.0
 13
13.462634
 23
-1.168033
 33
0.0
  0
SOLID
  5
160E
  8
0
  6
BYBLOCK
 62
     0
 10
11.632634
 20
-1.138033
 30
0.0
 11
11.632634
 21
-1.198033
 31
0.0
 12
11.452634
 22
-1.168033
 32
0.0
 13
11.452634
 23
-1.168033
 33
0.0
  0
TEXT
  8
0
  40
0.125
  5
17BC
  62
0
  72
0
  71
0
 10
12.2680
 20
-1.38928
 30
0.000000
  1
 2.01"
  0
TEXT
  8
0
  40
0.125
  5
17BD
  62
0
  72
0
  71
0
 10
12.2680
 20
-1.55178
 30
0.000000
  1
 [51.1mm]
  0
POINT
  5
1610
  8
DEFPOINTS
  6
BYBLOCK
 62
     0
 10
13.462634
 20
-0.125477
 30
0.0
  0
POINT
  5
1611
  8
DEFPOINTS
  6
BYBLOCK
 62
     0
 10
11.452634
 20
-0.255477
 30
0.0
  0
POINT
  5
1612
  8
DEFPOINTS
  6
BYBLOCK
 62
     0
 10
11.452634
 20
-1.168033
 30
0.0
  0
ENDBLK
  5
1613
  8
0
  0
BLOCK
  8
0
  2
*D26
 70
     1
 10
0.0
 20
0.0
 30
0.0
  3
*D26
  1

  0
LINE
  5
1615
  8
0
  6
BYBLOCK
 62
     0
 10
13.462634
 20
-0.187977
 30
0.0
 11
13.462634
 21
-2.26823
 31
0.0
  0
LINE
  5
1616
  8
0
  6
BYBLOCK
 62
     0
 10
11.347634
 20
-0.182977
 30
0.0
 11
11.347634
 21
-2.26823
 31
0.0
  0
LINE
  5
1617
  8
0
  6
BYBLOCK
 62
     0
 10
13.282634
 20
-2.08823
 30
0.0
 11
13.050961
 21
-2.08823
 31
0.0
  0
LINE
  5
1618
  8
0
  6
BYBLOCK
 62
     0
 10
11.527634
 20
-2.08823
 30
0.0
 11
11.954294
 21
-2.08823
 31
0.0
  0
SOLID
  5
1619
  8
0
  6
BYBLOCK
 62
     0
 10
13.282634
 20
-2.05823
 30
0.0
 11
13.282634
 21
-2.11823
 31
0.0
 12
13.462634
 22
-2.08823
 32
0.0
 13
13.462634
 23
-2.08823
 33
0.0
  0
SOLID
  5
161A
  8
0
  6
BYBLOCK
 62
     0
 10
11.527634
 20
-2.05823
 30
0.0
 11
11.527634
 21
-2.11823
 31
0.0
 12
11.347634
 22
-2.08823
 32
0.0
 13
11.347634
 23
-2.08823
 33
0.0
  0
TEXT
  8
0
  40
0.125
  5
17BE
  62
0
  72
0
  71
0
 10
12.2526
 20
-2.30948
 30
0.000000
  1
 2.12"
  0
TEXT
  8
0
  40
0.125
  5
17BF
  62
0
  72
0
  71
0
 10
12.2526
 20
-2.47198
 30
0.000000
  1
 [53.7mm]
  0
POINT
  5
161C
  8
DEFPOINTS
  6
BYBLOCK
 62
     0
 10
13.462634
 20
-0.125477
 30
0.0
  0
POINT
  5
161D
  8
DEFPOINTS
  6
BYBLOCK
 62
     0
 10
11.347634
 20
-0.120477
 30
0.0
  0
POINT
  5
161E
  8
DEFPOINTS
  6
BYBLOCK
 62
     0
 10
11.347634
 20
-2.08823
 30
0.0
  0
ENDBLK
  5
161F
  8
0
  0
BLOCK
  8
0
  2
*D27
 70
     1
 10
0.0
 20
0.0
 30
0.0
  3
*D27
  1

  0
LINE
  5
162F
  8
0
  6
BYBLOCK
 62
     0
 10
11.347634
 20
6.767023
 30
0.0
 11
11.347634
 21
7.931678
 31
0.0
  0
LINE
  5
1630
  8
0
  6
BYBLOCK
 62
     0
 10
13.322634
 20
6.272023
 30
0.0
 11
13.322634
 21
7.931678
 31
0.0
  0
LINE
  5
1631
  8
0
  6
BYBLOCK
 62
     0
 10
11.527634
 20
7.751678
 30
0.0
 11
11.826511
 21
7.751678
 31
0.0
  0
LINE
  5
1632
  8
0
  6
BYBLOCK
 62
     0
 10
13.142634
 20
7.751678
 30
0.0
 11
12.902345
 21
7.751678
 31
0.0
  0
SOLID
  5
1633
  8
0
  6
BYBLOCK
 62
     0
 10
11.527634
 20
7.781678
 30
0.0
 11
11.527634
 21
7.721678
 31
0.0
 12
11.347634
 22
7.751678
 32
0.0
 13
11.347634
 23
7.751678
 33
0.0
  0
SOLID
  5
1634
  8
0
  6
BYBLOCK
 62
     0
 10
13.142634
 20
7.781678
 30
0.0
 11
13.142634
 21
7.721678
 31
0.0
 12
13.322634
 22
7.751678
 32
0.0
 13
13.322634
 23
7.751678
 33
0.0
  0
TEXT
  8
0
  40
0.125
  5
17C0
  62
0
  72
0
  71
0
 10
12.1144
 20
7.53043
 30
0.000000
  1
 1.98"
  0
TEXT
  8
0
  40
0.125
  5
17C1
  62
0
  72
0
  71
0
 10
12.1144
 20
7.36793
 30
0.000000
  1
 [50.2mm]
  0
POINT
  5
1636
  8
DEFPOINTS
  6
BYBLOCK
 62
     0
 10
11.347634
 20
6.704523
 30
0.0
  0
POINT
  5
1637
  8
DEFPOINTS
  6
BYBLOCK
 62
     0
 10
13.322634
 20
6.209523
 30
0.0
  0
POINT
  5
1638
  8
DEFPOINTS
  6
BYBLOCK
 62
     0
 10
13.322634
 20
7.751678
 30
0.0
  0
ENDBLK
  5
1639
  8
0
  0
BLOCK
  8
0
  2
*D28
 70
     1
 10
0.0
 20
0.0
 30
0.0
  3
*D28
  1

  0
LINE
  5
1665
  8
0
  6
BYBLOCK
 62
     0
 10
6.029832
 20
6.209523
 30
0.0
 11
4.85627
 21
6.209523
 31
0.0
  0
LINE
  5
1666
  8
0
  6
BYBLOCK
 62
     0
 10
5.889417
 20
0.283893
 30
0.0
 11
4.85627
 21
0.283893
 31
0.0
  0
LINE
  5
1667
  8
0
  6
BYBLOCK
 62
     0
 10
5.03627
 20
6.029523
 30
0.0
 11
5.03627
 21
3.800683
 31
0.0
  0
LINE
  5
1668
  8
0
  6
BYBLOCK
 62
     0
 10
5.03627
 20
0.463893
 30
0.0
 11
5.03627
 21
2.641516
 31
0.0
  0
SOLID
  5
1669
  8
0
  6
BYBLOCK
 62
     0
 10
5.00627
 20
6.029523
 30
0.0
 11
5.06627
 21
6.029523
 31
0.0
 12
5.03627
 22
6.209523
 32
0.0
 13
5.03627
 23
6.209523
 33
0.0
  0
SOLID
  5
166A
  8
0
  6
BYBLOCK
 62
     0
 10
5.00627
 20
0.463893
 30
0.0
 11
5.06627
 21
0.463893
 31
0.0
 12
5.03627
 22
0.283893
 32
0.0
 13
5.03627
 23
0.283893
 33
0.0
  0
TEXT
  8
0
  40
0.125
  5
17C2
  62
0
  72
0
  71
0
 10
4.78627
 20
2.99985
 30
0.000000
  1
 5.93"
  0
TEXT
  8
0
  40
0.125
  5
17C3
  62
0
  72
0
  71
0
 10
4.78627
 20
2.83735
 30
0.000000
  1
 [150.5mm]
  0
POINT
  5
166C
  8
DEFPOINTS
  6
BYBLOCK
 62
     0
 10
6.092332
 20
6.209523
 30
0.0
  0
POINT
  5
166D
  8
DEFPOINTS
  6
BYBLOCK
 62
     0
 10
5.951917
 20
0.283893
 30
0.0
  0
POINT
  5
166E
  8
DEFPOINTS
  6
BYBLOCK
 62
     0
 10
5.03627
 20
0.283893
 30
0.0
  0
ENDBLK
  5
166F
  8
0
  0
BLOCK
  8
0
  2
*D29
 70
     1
 10
0.0
 20
0.0
 30
0.0
  3
*D29
  1

  0
LINE
  5
1671
  8
0
  6
BYBLOCK
 62
     0
 10
6.563732
 20
6.391023
 30
0.0
 11
4.15796
 21
6.391023
 31
0.0
  0
LINE
  5
1672
  8
0
  6
BYBLOCK
 62
     0
 10
6.197732
 20
0.193023
 30
0.0
 11
4.15796
 21
0.193023
 31
0.0
  0
LINE
  5
1673
  8
0
  6
BYBLOCK
 62
     0
 10
4.33796
 20
6.211023
 30
0.0
 11
4.33796
 21
3.8111
 31
0.0
  0
LINE
  5
1674
  8
0
  6
BYBLOCK
 62
     0
 10
4.33796
 20
0.373023
 30
0.0
 11
4.33796
 21
2.6311
 31
0.0
  0
SOLID
  5
1675
  8
0
  6
BYBLOCK
 62
     0
 10
4.30796
 20
6.211023
 30
0.0
 11
4.36796
 21
6.211023
 31
0.0
 12
4.33796
 22
6.391023
 32
0.0
 13
4.33796
 23
6.391023
 33
0.0
  0
SOLID
  5
1676
  8
0
  6
BYBLOCK
 62
     0
 10
4.30796
 20
0.373023
 30
0.0
 11
4.36796
 21
0.373023
 31
0.0
 12
4.33796
 22
0.193023
 32
0.0
 13
4.33796
 23
0.193023
 33
0.0
  0
TEXT
  8
0
  40
0.125
  5
17C4
  62
0
  72
0
  71
0
 10
4.08796
 20
2.99985
 30
0.000000
  1
 6.20"
  0
TEXT
  8
0
  40
0.125
  5
17C5
  62
0
  72
0
  71
0
 10
4.08796
 20
2.83735
 30
0.000000
  1
 [157.4mm]
  0
POINT
  5
1678
  8
DEFPOINTS
  6
BYBLOCK
 62
     0
 10
6.626232
 20
6.391023
 30
0.0
  0
POINT
  5
1679
  8
DEFPOINTS
  6
BYBLOCK
 62
     0
 10
6.260232
 20
0.193023
 30
0.0
  0
POINT
  5
167A
  8
DEFPOINTS
  6
BYBLOCK
 62
     0
 10
4.33796
 20
0.193023
 30
0.0
  0
ENDBLK
  5
167B
  8
0
  0
BLOCK
  8
0
  2
*D30
 70
     1
 10
0.0
 20
0.0
 30
0.0
  3
*D30
  1

  0
LINE
  5
167D
  8
0
  6
BYBLOCK
 62
     0
 10
5.730932
 20
6.839523
 30
0.0
 11
3.506204
 21
6.839523
 31
0.0
  0
LINE
  5
167E
  8
0
  6
BYBLOCK
 62
     0
 10
5.730932
 20
-0.255477
 30
0.0
 11
3.506204
 21
-0.255477
 31
0.0
  0
LINE
  5
167F
  8
0
  6
BYBLOCK
 62
     0
 10
3.686204
 20
6.659523
 30
0.0
 11
3.686204
 21
3.823931
 31
0.0
  0
LINE
  5
1680
  8
0
  6
BYBLOCK
 62
     0
 10
3.686204
 20
-0.075477
 30
0.0
 11
3.686204
 21
2.664765
 31
0.0
  0
SOLID
  5
1681
  8
0
  6
BYBLOCK
 62
     0
 10
3.656204
 20
6.659523
 30
0.0
 11
3.716204
 21
6.659523
 31
0.0
 12
3.686204
 22
6.839523
 32
0.0
 13
3.686204
 23
6.839523
 33
0.0
  0
SOLID
  5
1682
  8
0
  6
BYBLOCK
 62
     0
 10
3.656204
 20
-0.075477
 30
0.0
 11
3.716204
 21
-0.075477
 31
0.0
 12
3.686204
 22
-0.255477
 32
0.0
 13
3.686204
 23
-0.255477
 33
0.0
  0
TEXT
  8
0
  40
0.125
  5
17C6
  62
0
  72
0
  71
0
 10
3.43620
 20
3.02310
 30
0.000000
  1
 7.10"
  0
TEXT
  8
0
  40
0.125
  5
17C7
  62
0
  72
0
  71
0
 10
3.43620
 20
2.86060
 30
0.000000
  1
 [180.2mm]
  0
POINT
  5
1684
  8
DEFPOINTS
  6
BYBLOCK
 62
     0
 10
5.793432
 20
6.839523
 30
0.0
  0
POINT
  5
1685
  8
DEFPOINTS
  6
BYBLOCK
 62
     0
 10
5.793432
 20
-0.255477
 30
0.0
  0
POINT
  5
1686
  8
DEFPOINTS
  6
BYBLOCK
 62
     0
 10
3.686204
 20
-0.255477
 30
0.0
  0
ENDBLK
  5
1687
  8
0
  0
BLOCK
  8
0
  2
*D31
 70
     1
 10
0.0
 20
0.0
 30
0.0
  3
*D31
  1

  0
LINE
  5
1697
  8
0
  6
BYBLOCK
 62
     0
 10
7.91323
 20
0.442354
 30
0.0
 11
7.572332
 21
0.820423
 31
0.0
  0
LINE
  5
1698
  8
0
  6
BYBLOCK
 62
     0
 10
7.572332
 20
0.820423
 30
0.0
 11
7.392332
 21
0.820423
 31
0.0
  0
SOLID
  5
1699
  8
0
  6
BYBLOCK
 62
     0
 10
7.93551
 20
0.462443
 30
0.0
 11
7.89095
 21
0.422264
 31
0.0
 12
8.033767
 22
0.308673
 32
0.0
 13
8.033767
 23
0.308673
 33
0.0
  0
TEXT
  8
0
  40
0.125
  5
17C8
  62
0
  72
0
  71
0
 10
6.59400
 20
0.599173
 30
0.000000
  1
 R0.26"
  0
TEXT
  8
0
  40
0.125
  5
17C9
  62
0
  72
0
  71
0
 10
6.59400
 20
0.436673
 30
0.000000
  1
 [R6.5mm]
  0
POINT
  5
169B
  8
DEFPOINTS
  6
BYBLOCK
 62
     0
 10
8.033767
 20
0.308673
 30
0.0
  0
POINT
  5
169C
  8
DEFPOINTS
  6
BYBLOCK
 62
     0
 10
8.205132
 20
0.118623
 30
0.0
  0
ENDBLK
  5
169D
  8
0
  0
BLOCK
  8
0
  2
*D32
 70
     1
 10
0.0
 20
0.0
 30
0.0
  3
*D32
  1

  0
LINE
  5
16A9
  8
0
  6
BYBLOCK
 62
     0
 10
8.772368
 20
-0.183178
 30
0.0
 11
9.482188
 21
-1.230779
 31
0.0
  0
LINE
  5
16AA
  8
0
  6
BYBLOCK
 62
     0
 10
9.482188
 20
-1.230779
 30
0.0
 11
9.662188
 21
-1.230779
 31
0.0
  0
SOLID
  5
16AB
  8
0
  6
BYBLOCK
 62
     0
 10
8.797203
 20
-0.16635
 30
0.0
 11
8.747532
 21
-0.200006
 31
0.0
 12
8.6714
 22
-0.034163
 32
0.0
 13
8.6714
 23
-0.034163
 33
0.0
  0
TEXT
  8
0
  40
0.125
  5
17CA
  62
0
  72
0
  71
0
 10
9.95011
 20
-1.45203
 30
0.000000
  1
 %%c0.16"
  0
TEXT
  8
0
  40
0.125
  5
17CB
  62
0
  72
0
  71
0
 10
9.95011
 20
-1.61453
 30
0.000000
  1
 [%%c4.0mm]
  0
POINT
  5
16AD
  8
DEFPOINTS
  6
BYBLOCK
 62
     0
 10
8.6714
 20
-0.034163
 30
0.0
  0
POINT
  5
16AE
  8
DEFPOINTS
  6
BYBLOCK
 62
     0
 10
8.583064
 20
0.096208
 30
0.0
  0
ENDBLK
  5
16AF
  8
0
  0
ENDSEC
  0
SECTION
  2
ENTITIES
  0
POLYLINE
  5
1199
  8
0
 66
     1
 10
0.0
 20
0.0
 30
0.0
 70
     1
  0
VERTEX
  5
16DB
  8
0
 10
5.807232
 20
6.091423
 30
0.0
 42
-0.414214
  0
VERTEX
  5
16DC
  8
0
 10
5.925332
 20
6.209523
 30
0.0
  0
VERTEX
  5
16DD
  8
0
 10
6.259332
 20
6.209523
 30
0.0
 42
0.414214
  0
VERTEX
  5
16DE
  8
0
 10
6.515232
 20
6.465423
 30
0.0
  0
VERTEX
  5
16DF
  8
0
 10
6.515232
 20
6.471423
 30
0.0
 42
-0.414214
  0
VERTEX
  5
16E0
  8
0
 10
6.633332
 20
6.589523
 30
0.0
  0
VERTEX
  5
16E1
  8
0
 10
8.249762
 20
6.589523
 30
0.0
 42
-0.414214
  0
VERTEX
  5
16E2
  8
0
 10
8.367862
 20
6.471423
 30
0.0
  0
VERTEX
  5
16E3
  8
0
 10
8.367862
 20
6.418253
 30
0.0
 42
0.414214
  0
VERTEX
  5
16E4
  8
0
 10
8.485962
 20
6.300153
 30
0.0
  0
VERTEX
  5
16E5
  8
0
 10
8.539132
 20
6.300153
 30
0.0
 42
-0.414214
  0
VERTEX
  5
16E6
  8
0
 10
8.657232
 20
6.182053
 30
0.0
  0
VERTEX
  5
16E7
  8
0
 10
8.657232
 20
0.492623
 30
0.0
 42
-0.414214
  0
VERTEX
  5
16E8
  8
0
 10
8.539132
 20
0.374523
 30
0.0
  0
VERTEX
  5
16E9
  8
0
 10
8.205132
 20
0.374523
 30
0.0
 42
0.414214
  0
VERTEX
  5
16EA
  8
0
 10
7.949232
 20
0.118623
 30
0.0
  0
VERTEX
  5
16EB
  8
0
 10
7.949232
 20
0.112623
 30
0.0
 42
-0.414214
  0
VERTEX
  5
16EC
  8
0
 10
7.831132
 20
-0.005477
 30
0.0
  0
VERTEX
  5
16ED
  8
0
 10
6.214702
 20
-0.005477
 30
0.0
 42
-0.414214
  0
VERTEX
  5
16EE
  8
0
 10
6.096602
 20
0.112623
 30
0.0
  0
VERTEX
  5
16EF
  8
0
 10
6.096602
 20
0.165793
 30
0.0
 42
0.414214
  0
VERTEX
  5
16F0
  8
0
 10
5.978502
 20
0.283893
 30
0.0
  0
VERTEX
  5
16F1
  8
0
 10
5.925332
 20
0.283893
 30
0.0
 42
-0.414214
  0
VERTEX
  5
16F2
  8
0
 10
5.807232
 20
0.401993
 30
0.0
  0
SEQEND
  5
16F3
  8
0
  0
POLYLINE
  5
119A
  8
0
 66
     1
 10
0.0
 20
0.0
 30
0.0
 70
     1
  0
VERTEX
  5
16F4
  8
0
 10
5.557232
 20
6.603323
 30
0.0
 42
-0.414214
  0
VERTEX
  5
16F5
  8
0
 10
5.793432
 20
6.839523
 30
0.0
  0
VERTEX
  5
16F6
  8
0
 10
8.671032
 20
6.839523
 30
0.0
 42
-0.414214
  0
VERTEX
  5
16F7
  8
0
 10
8.907232
 20
6.603323
 30
0.0
  0
VERTEX
  5
16F8
  8
0
 10
8.907232
 20
-0.019277
 30
0.0
 42
-0.414214
  0
VERTEX
  5
16F9
  8
0
 10
8.671032
 20
-0.255477
 30
0.0
  0
VERTEX
  5
16FA
  8
0
 10
5.793432
 20
-0.255477
 30
0.0
 42
-0.414214
  0
VERTEX
  5
16FB
  8
0
 10
5.557232
 20
-0.019277
 30
0.0
  0
SEQEND
  5
16FC
  8
0
  0
POLYLINE
  5
119B
  8
0
 66
     1
 10
0.0
 20
0.0
 30
0.0
 70
     1
  0
VERTEX
  5
16FD
  8
0
 10
5.752232
 20
6.091423
 30
0.0
 42
-0.414214
  0
VERTEX
  5
16FE
  8
0
 10
5.925332
 20
6.264523
 30
0.0
  0
VERTEX
  5
16FF
  8
0
 10
6.259332
 20
6.264523
 30
0.0
 42
0.414214
  0
VERTEX
  5
1700
  8
0
 10
6.460232
 20
6.465423
 30
0.0
  0
VERTEX
  5
1701
  8
0
 10
6.460232
 20
6.471423
 30
0.0
 42
-0.414214
  0
VERTEX
  5
1702
  8
0
 10
6.633332
 20
6.644523
 30
0.0
  0
VERTEX
  5
1703
  8
0
 10
8.249762
 20
6.644523
 30
0.0
 42
-0.414214
  0
VERTEX
  5
1704
  8
0
 10
8.422862
 20
6.471423
 30
0.0
  0
VERTEX
  5
1705
  8
0
 10
8.422862
 20
6.418253
 30
0.0
 42
0.414214
  0
VERTEX
  5
1706
  8
0
 10
8.485962
 20
6.355153
 30
0.0
  0
VERTEX
  5
1707
  8
0
 10
8.539132
 20
6.355153
 30
0.0
 42
-0.414214
  0
VERTEX
  5
1708
  8
0
 10
8.712232
 20
6.182053
 30
0.0
  0
VERTEX
  5
1709
  8
0
 10
8.712232
 20
0.492623
 30
0.0
 42
-0.414214
  0
VERTEX
  5
170A
  8
0
 10
8.539132
 20
0.319523
 30
0.0
  0
VERTEX
  5
170B
  8
0
 10
8.205132
 20
0.319523
 30
0.0
 42
0.414214
  0
VERTEX
  5
170C
  8
0
 10
8.004232
 20
0.118623
 30
0.0
  0
VERTEX
  5
170D
  8
0
 10
8.004232
 20
0.112623
 30
0.0
 42
-0.414214
  0
VERTEX
  5
170E
  8
0
 10
7.831132
 20
-0.060477
 30
0.0
  0
VERTEX
  5
170F
  8
0
 10
6.214702
 20
-0.060477
 30
0.0
 42
-0.414214
  0
VERTEX
  5
1710
  8
0
 10
6.041602
 20
0.112623
 30
0.0
  0
VERTEX
  5
1711
  8
0
 10
6.041602
 20
0.165793
 30
0.0
 42
0.414214
  0
VERTEX
  5
1712
  8
0
 10
5.978502
 20
0.228893
 30
0.0
  0
VERTEX
  5
1713
  8
0
 10
5.925332
 20
0.228893
 30
0.0
 42
-0.414214
  0
VERTEX
  5
1714
  8
0
 10
5.752232
 20
0.401993
 30
0.0
  0
SEQEND
  5
1715
  8
0
  0
POLYLINE
  5
119F
  8
0
 66
     1
 10
0.0
 20
0.0
 30
0.0
 70
     1
  0
VERTEX
  5
1716
  8
0
 10
5.692232
 20
6.091423
 30
0.0
 42
-0.414214
  0
VERTEX
  5
1717
  8
0
 10
5.925332
 20
6.324523
 30
0.0
  0
VERTEX
  5
1718
  8
0
 10
6.259332
 20
6.324523
 30
0.0
 42
0.414214
  0
VERTEX
  5
1719
  8
0
 10
6.400232
 20
6.465423
 30
0.0
  0
VERTEX
  5
171A
  8
0
 10
6.400232
 20
6.471423
 30
0.0
 42
-0.414214
  0
VERTEX
  5
171B
  8
0
 10
6.633332
 20
6.704523
 30
0.0
  0
VERTEX
  5
171C
  8
0
 10
8.249762
 20
6.704523
 30
0.0
 42
-0.414214
  0
VERTEX
  5
171D
  8
0
 10
8.482862
 20
6.471423
 30
0.0
  0
VERTEX
  5
171E
  8
0
 10
8.482862
 20
6.418253
 30
0.0
 42
0.414214
  0
VERTEX
  5
171F
  8
0
 10
8.485962
 20
6.415153
 30
0.0
  0
VERTEX
  5
1720
  8
0
 10
8.539132
 20
6.415153
 30
0.0
 42
-0.414214
  0
VERTEX
  5
1721
  8
0
 10
8.772232
 20
6.182053
 30
0.0
  0
VERTEX
  5
1722
  8
0
 10
8.772232
 20
0.492623
 30
0.0
 42
-0.414214
  0
VERTEX
  5
1723
  8
0
 10
8.539132
 20
0.259523
 30
0.0
  0
VERTEX
  5
1724
  8
0
 10
8.205132
 20
0.259523
 30
0.0
 42
0.414214
  0
VERTEX
  5
1725
  8
0
 10
8.064232
 20
0.118623
 30
0.0
  0
VERTEX
  5
1726
  8
0
 10
8.064232
 20
0.112623
 30
0.0
 42
-0.414214
  0
VERTEX
  5
1727
  8
0
 10
7.831132
 20
-0.120477
 30
0.0
  0
VERTEX
  5
1728
  8
0
 10
6.214702
 20
-0.120477
 30
0.0
 42
-0.414214
  0
VERTEX
  5
1729
  8
0
 10
5.981602
 20
0.112623
 30
0.0
  0
VERTEX
  5
172A
  8
0
 10
5.981602
 20
0.165793
 30
0.0
 42
0.414214
  0
VERTEX
  5
172B
  8
0
 10
5.978502
 20
0.168893
 30
0.0
  0
VERTEX
  5
172C
  8
0
 10
5.925332
 20
0.168893
 30
0.0
 42
-0.414214
  0
VERTEX
  5
172D
  8
0
 10
5.692232
 20
0.401993
 30
0.0
  0
SEQEND
  5
172E
  8
0
  0
POLYLINE
  5
11A0
  8
0
 66
     1
 10
0.0
 20
0.0
 30
0.0
  0
VERTEX
  5
172F
  8
0
 10
8.772232
 20
-0.019277
 30
0.0
 42
-0.414214
  0
VERTEX
  5
1730
  8
0
 10
8.671032
 20
-0.120477
 30
0.0
  0
SEQEND
  5
1731
  8
0
  0
POLYLINE
  5
11A1
  8
0
 66
     1
 10
0.0
 20
0.0
 30
0.0
  0
VERTEX
  5
1732
  8
0
 10
8.671032
 20
6.704523
 30
0.0
 42
-0.414214
  0
VERTEX
  5
1733
  8
0
 10
8.772232
 20
6.603323
 30
0.0
  0
SEQEND
  5
1734
  8
0
  0
POLYLINE
  5
11A2
  8
0
 66
     1
 10
0.0
 20
0.0
 30
0.0
  0
VERTEX
  5
1735
  8
0
 10
5.692232
 20
6.603323
 30
0.0
  0
VERTEX
  5
1736
  8
0
 10
5.692232
 20
6.603323
 30
0.0
 42
-0.414214
  0
VERTEX
  5
1737
  8
0
 10
5.793432
 20
6.704523
 30
0.0
  0
SEQEND
  5
1738
  8
0
  0
POLYLINE
  5
11A3
  8
0
 66
     1
 10
0.0
 20
0.0
 30
0.0
  0
VERTEX
  5
1739
  8
0
 10
5.793432
 20
-0.120477
 30
0.0
 42
-0.414214
  0
VERTEX
  5
173A
  8
0
 10
5.692232
 20
-0.019277
 30
0.0
  0
SEQEND
  5
173B
  8
0
  0
LINE
  5
11A4
  8
0
 10
5.793432
 20
-0.120477
 30
0.0
 11
6.214702
 21
-0.120477
 31
0.0
  0
LINE
  5
11A5
  8
0
 10
8.671032
 20
-0.120477
 30
0.0
 11
7.831132
 21
-0.120477
 31
0.0
  0
LINE
  5
11A6
  8
0
 10
8.772232
 20
0.492623
 30
0.0
 11
8.772232
 21
-0.019277
 31
0.0
  0
LINE
  5
11A7
  8
0
 10
5.692232
 20
0.401993
 30
0.0
 11
5.692232
 21
-0.019277
 31
0.0
  0
LINE
  5
11A8
  8
0
 10
8.772232
 20
6.603323
 30
0.0
 11
8.772232
 21
6.182053
 31
0.0
  0
LINE
  5
11A9
  8
0
 10
8.671032
 20
6.704523
 30
0.0
 11
8.249762
 21
6.704523
 31
0.0
  0
LINE
  5
11AA
  8
0
 10
5.793432
 20
6.704523
 30
0.0
 11
6.633332
 21
6.704523
 31
0.0
  0
LINE
  5
11AB
  8
0
 10
5.692232
 20
6.603323
 30
0.0
 11
5.692232
 21
6.091423
 31
0.0
  0
LINE
  5
11AC
  8
0
 10
6.259332
 20
6.209523
 30
0.0
 11
8.657232
 21
6.209523
 31
0.0
  0
LINE
  5
11AD
  8
0
 10
8.205132
 20
0.374523
 30
0.0
 11
5.807232
 21
0.374523
 31
0.0
  0
CIRCLE
  5
11AE
  8
0
 10
5.837232
 20
0.031023
 30
0.0
 40
0.07874
  0
CIRCLE
  5
11AF
  8
0
 10
8.627232
 20
0.031023
 30
0.0
 40
0.07874
  0
CIRCLE
  5
11B0
  8
0
 10
5.837232
 20
6.553023
 30
0.0
 40
0.07874
  0
CIRCLE
  5
11B1
  8
0
 10
8.627232
 20
6.553023
 30
0.0
 40
0.07874
  0
CIRCLE
  5
11B7
  8
0
 10
8.239232
 20
0.084523
 30
0.0
 40
0.175
  0
CIRCLE
  5
11B9
  8
0
 10
8.239232
 20
0.084523
 30
0.0
 40
0.0835
  0
CIRCLE
  5
11BA
  8
0
 10
6.225232
 20
6.499523
 30
0.0
 40
0.0835
  0
CIRCLE
  5
11BB
  8
0
 10
6.225232
 20
6.499523
 30
0.0
 40
0.175
  0
CIRCLE
  5
11C7
  8
0
 10
7.232232
 20
6.391023
 30
0.0
 40
0.0725
  0
CIRCLE
  5
11C8
  8
0
 10
7.232232
 20
0.193023
 30
0.0
 40
0.0725
  0
CIRCLE
  5
11CA
  8
0
 10
6.260232
 20
0.193023
 30
0.0
 40
0.0725
  0
CIRCLE
  5
11CC
  8
0
 10
8.204232
 20
6.391023
 30
0.0
 40
0.0725
  0
CIRCLE
  5
11CE
  8
0
 10
6.626232
 20
6.391023
 30
0.0
 40
0.0725
  0
CIRCLE
  5
11CF
  8
0
 10
7.838232
 20
0.193023
 30
0.0
 40
0.0725
  0
CIRCLE
  5
11D6
  8
0
 10
8.432732
 20
1.166523
 30
0.0
 40
0.0705
  0
ARC
  5
11D7
  8
0
 10
8.432732
 20
1.166523
 30
0.0
 40
0.1375
 50
90.0
 51
270.0
  0
LINE
  5
11D8
  8
0
 10
8.432732
 20
1.304023
 30
0.0
 11
8.657232
 21
1.304023
 31
0.0
  0
LINE
  5
11D9
  8
0
 10
8.432732
 20
1.029023
 30
0.0
 11
8.657232
 21
1.029023
 31
0.0
  0
LINE
  5
11EC
  8
0
 10
6.031732
 20
5.280023
 30
0.0
 11
5.807232
 21
5.280023
 31
0.0
  0
CIRCLE
  5
11ED
  8
0
 10
6.031732
 20
5.417523
 30
0.0
 40
0.0705
  0
LINE
  5
11EE
  8
0
 10
6.031732
 20
5.555023
 30
0.0
 11
5.807232
 21
5.555023
 31
0.0
  0
ARC
  5
11EF
  8
0
 10
6.031732
 20
5.417523
 30
0.0
 40
0.1375
 50
270.0
 51
90.0
  0
LINE
  5
11F0
  8
0
 10
8.653993
 20
6.052043
 30
0.0
 11
8.614613
 21
6.052043
 31
0.0
  0
LINE
  5
11F1
  8
0
 10
8.496513
 20
6.170143
 30
0.0
 11
8.496513
 21
6.209523
 31
0.0
  0
ARC
  5
11F5
  8
0
 10
8.614613
 20
6.170143
 30
0.0
 40
0.1181
 50
180.0
 51
270.0
  0
ARC
  5
11F8
  8
0
 10
5.849851
 20
0.413903
 30
0.0
 40
0.1181
 50
0.0
 51
90.0
  0
LINE
  5
11F9
  8
0
 10
5.967951
 20
0.413903
 30
0.0
 11
5.967951
 21
0.374523
 31
0.0
  0
LINE
  5
11FA
  8
0
 10
5.849851
 20
0.532003
 30
0.0
 11
5.807232
 21
0.532003
 31
0.0
  0
LINE
  5
11FE
  8
0
 10
5.557232
 20
9.095877
 30
0.0
 11
7.232232
 21
9.095877
 31
0.0
  0
LINE
  5
11FF
  8
0
 10
5.557232
 20
9.095877
 30
0.0
 11
5.557232
 21
9.335877
 31
0.0
  0
LINE
  5
1200
  8
0
 10
5.557232
 20
9.335877
 30
0.0
 11
7.232232
 21
9.335877
 31
0.0
  0
LINE
  5
1201
  8
0
 10
5.692232
 20
8.990877
 30
0.0
 11
5.692232
 21
9.095877
 31
0.0
  0
LINE
  5
1202
  8
0
 10
5.692232
 20
8.990877
 30
0.0
 11
7.232232
 21
8.990877
 31
0.0
  0
LINE
  5
1204
  8
0
 10
7.232232
 20
11.105877
 30
0.0
 11
5.687232
 21
11.105877
 31
0.0
  0
LINE
  5
1206
  8
0
 10
5.687232
 20
11.105877
 30
0.0
 11
5.654232
 21
9.335877
 31
0.0
  0
LINE
  5
1207
  8
HIDDEN
 10
5.807232
 20
8.990877
 30
0.0
 11
5.807232
 21
10.755877
 31
0.0
  0
LINE
  5
120A
  8
HIDDEN
 10
5.933232
 20
10.965877
 30
0.0
 11
6.078232
 21
10.965877
 31
0.0
  0
LINE
  5
120F
  8
HIDDEN
 10
6.187232
 20
10.965877
 30
0.0
 11
7.232232
 21
10.965877
 31
0.0
  0
LINE
  5
1215
  8
HIDDEN
 10
6.515232
 20
10.755877
 30
0.0
 11
7.232232
 21
10.755877
 31
0.0
  0
LINE
  5
1216
  8
HIDDEN
 10
5.922472
 20
8.990877
 30
0.0
 11
5.922472
 21
9.500877
 31
0.0
  0
LINE
  5
1217
  8
HIDDEN
 10
5.764992
 20
8.990877
 30
0.0
 11
5.764992
 21
9.500877
 31
0.0
  0
LINE
  5
1218
  8
HIDDEN
 10
5.764992
 20
9.500877
 30
0.0
 11
5.922472
 21
9.500877
 31
0.0
  0
LINE
  5
1219
  8
HIDDEN
 10
5.985472
 20
10.700877
 30
0.0
 11
5.827992
 21
10.700877
 31
0.0
  0
LINE
  5
121B
  8
HIDDEN
 10
5.985472
 20
10.700877
 30
0.0
 11
5.985472
 21
11.105877
 31
0.0
  0
LINE
  5
121C
  8
HIDDEN
 10
5.827992
 20
10.700877
 30
0.0
 11
5.827992
 21
11.105877
 31
0.0
  0
LINE
  5
121D
  8
0
 10
13.462634
 20
3.292023
 30
0.0
 11
13.462634
 21
-0.125477
 31
0.0
  0
LINE
  5
121E
  8
HIDDEN
 10
13.322634
 20
0.374523
 30
0.0
 11
13.322634
 21
3.292023
 31
0.0
  0
LINE
  5
121F
  8
0
 10
11.347634
 20
-0.120477
 30
0.0
 11
11.347634
 21
3.292023
 31
0.0
  0
LINE
  5
1220
  8
0
 10
11.692634
 20
-0.255477
 30
0.0
 11
11.692634
 21
3.292023
 31
0.0
  0
LINE
  5
1221
  8
0
 10
11.452634
 20
-0.255477
 30
0.0
 11
11.452634
 21
3.292023
 31
0.0
  0
LINE
  5
1222
  8
HIDDEN
 10
11.347634
 20
-0.005477
 30
0.0
 11
13.112634
 21
-0.005477
 31
0.0
  0
LINE
  5
1223
  8
HIDDEN
 10
11.347634
 20
0.374523
 30
0.0
 11
13.322634
 21
0.374523
 31
0.0
  0
LINE
  5
1224
  8
0
 10
13.462634
 20
-0.125477
 30
0.0
 11
11.692634
 21
-0.158477
 31
0.0
  0
LINE
  5
1225
  8
HIDDEN
 10
11.857634
 20
-0.047717
 30
0.0
 11
11.857634
 21
0.109763
 31
0.0
  0
LINE
  5
1226
  8
HIDDEN
 10
11.347634
 20
0.109763
 30
0.0
 11
11.857634
 21
0.109763
 31
0.0
  0
LINE
  5
1227
  8
HIDDEN
 10
11.347634
 20
-0.047717
 30
0.0
 11
11.857634
 21
-0.047717
 31
0.0
  0
LINE
  5
1228
  8
0
 10
11.452634
 20
-0.255477
 30
0.0
 11
11.692634
 21
-0.255477
 31
0.0
  0
LINE
  5
1229
  8
0
 10
11.347634
 20
-0.120477
 30
0.0
 11
11.452634
 21
-0.120477
 31
0.0
  0
LINE
  5
122A
  8
HIDDEN
 10
13.112634
 20
1.104023
 30
0.0
 11
13.322634
 21
1.104023
 31
0.0
  0
LINE
  5
122B
  8
HIDDEN
 10
13.112634
 20
1.312023
 30
0.0
 11
13.322634
 21
1.312023
 31
0.0
  0
LINE
  5
122C
  8
HIDDEN
 10
13.112634
 20
1.171023
 30
0.0
 11
13.322634
 21
1.171023
 31
0.0
  0
LINE
  5
122D
  8
HIDDEN
 10
13.112634
 20
1.379023
 30
0.0
 11
13.322634
 21
1.379023
 31
0.0
  0
LINE
  5
122E
  8
HIDDEN
 10
13.112634
 20
1.104023
 30
0.0
 11
13.112634
 21
1.379023
 31
0.0
  0
LINE
  5
1230
  8
HIDDEN
 10
13.112634
 20
-0.005477
 30
0.0
 11
13.112634
 21
0.374523
 31
0.0
  0
LINE
  5
1231
  8
HIDDEN
 10
13.057634
 20
0.175763
 30
0.0
 11
13.462634
 21
0.175763
 31
0.0
  0
LINE
  5
1232
  8
HIDDEN
 10
13.112634
 20
0.120523
 30
0.0
 11
13.322634
 21
0.120523
 31
0.0
  0
LINE
  5
1233
  8
HIDDEN
 10
13.112634
 20
0.265523
 30
0.0
 11
13.322634
 21
0.265523
 31
0.0
  0
LINE
  5
1234
  8
HIDDEN
 10
13.322634
 20
0.120523
 30
0.0
 11
13.322634
 21
0.265523
 31
0.0
  0
LINE
  5
1235
  8
HIDDEN
 10
13.057634
 20
0.018283
 30
0.0
 11
13.462634
 21
0.018283
 31
0.0
  0
LINE
  5
1236
  8
HIDDEN
 10
0.636439
 20
6.209523
 30
0.0
 11
0.636439
 21
3.292023
 31
0.0
  0
LINE
  5
1237
  8
0
 10
0.496439
 20
3.292023
 30
0.0
 11
0.496439
 21
6.709523
 31
0.0
  0
LINE
  5
1238
  8
0
 10
2.611439
 20
6.704523
 30
0.0
 11
2.611439
 21
3.292023
 31
0.0
  0
LINE
  5
1239
  8
0
 10
2.266439
 20
6.839523
 30
0.0
 11
2.266439
 21
3.292023
 31
0.0
  0
LINE
  5
123A
  8
0
 10
2.506439
 20
6.839523
 30
0.0
 11
2.506439
 21
3.292023
 31
0.0
  0
LINE
  5
123B
  8
0
 10
2.506439
 20
-0.255477
 30
0.0
 11
2.506439
 21
3.292023
 31
0.0
  0
LINE
  5
123C
  8
0
 10
2.266439
 20
-0.255477
 30
0.0
 11
2.266439
 21
3.292023
 31
0.0
  0
LINE
  5
123D
  8
0
 10
2.611439
 20
-0.120477
 30
0.0
 11
2.611439
 21
3.292023
 31
0.0
  0
LINE
  5
123E
  8
HIDDEN
 10
0.636439
 20
0.374523
 30
0.0
 11
0.636439
 21
3.292023
 31
0.0
  0
LINE
  5
123F
  8
0
 10
0.496439
 20
3.292023
 30
0.0
 11
0.496439
 21
-0.125477
 31
0.0
  0
LINE
  5
1240
  8
0
 10
0.496439
 20
-0.125477
 30
0.0
 11
2.266439
 21
-0.158477
 31
0.0
  0
LINE
  5
1241
  8
HIDDEN
 10
2.611439
 20
0.374523
 30
0.0
 11
0.636439
 21
0.374523
 31
0.0
  0
LINE
  5
1242
  8
HIDDEN
 10
2.611439
 20
-0.005477
 30
0.0
 11
0.846439
 21
-0.005477
 31
0.0
  0
LINE
  5
1243
  8
0
 10
2.506439
 20
-0.255477
 30
0.0
 11
2.266439
 21
-0.255477
 31
0.0
  0
LINE
  5
1244
  8
HIDDEN
 10
2.611439
 20
-0.047717
 30
0.0
 11
2.101439
 21
-0.047717
 31
0.0
  0
LINE
  5
1245
  8
HIDDEN
 10
2.611439
 20
0.109763
 30
0.0
 11
2.101439
 21
0.109763
 31
0.0
  0
LINE
  5
1246
  8
0
 10
2.611439
 20
-0.120477
 30
0.0
 11
2.506439
 21
-0.120477
 31
0.0
  0
LINE
  5
1247
  8
HIDDEN
 10
2.101439
 20
-0.047717
 30
0.0
 11
2.101439
 21
0.109763
 31
0.0
  0
LINE
  5
1248
  8
HIDDEN
 10
0.846439
 20
-0.005477
 30
0.0
 11
0.846439
 21
0.374523
 31
0.0
  0
LINE
  5
1249
  8
HIDDEN
 10
0.901439
 20
-0.047717
 30
0.0
 11
0.496439
 21
-0.047717
 31
0.0
  0
LINE
  5
124A
  8
HIDDEN
 10
0.846439
 20
0.265523
 30
0.0
 11
0.636439
 21
0.265523
 31
0.0
  0
LINE
  5
124B
  8
HIDDEN
 10
0.846439
 20
0.120523
 30
0.0
 11
0.636439
 21
0.120523
 31
0.0
  0
LINE
  5
124C
  8
HIDDEN
 10
0.901439
 20
0.109763
 30
0.0
 11
0.496439
 21
0.109763
 31
0.0
  0
LINE
  5
124D
  8
HIDDEN
 10
0.901439
 20
0.109763
 30
0.0
 11
0.901439
 21
-0.047717
 31
0.0
  0
LINE
  5
124E
  8
HIDDEN
 10
0.636439
 20
0.120523
 30
0.0
 11
0.636439
 21
0.265523
 31
0.0
  0
LINE
  5
124F
  8
HIDDEN
 10
0.846439
 20
1.104023
 30
0.0
 11
0.846439
 21
1.379023
 31
0.0
  0
LINE
  5
1250
  8
HIDDEN
 10
0.846439
 20
1.171023
 30
0.0
 11
0.636439
 21
1.171023
 31
0.0
  0
LINE
  5
1251
  8
HIDDEN
 10
0.846439
 20
1.312023
 30
0.0
 11
0.636439
 21
1.312023
 31
0.0
  0
LINE
  5
1252
  8
HIDDEN
 10
0.846439
 20
1.104023
 30
0.0
 11
0.636439
 21
1.104023
 31
0.0
  0
LINE
  5
1253
  8
HIDDEN
 10
0.846439
 20
1.379023
 30
0.0
 11
0.636439
 21
1.379023
 31
0.0
  0
LINE
  5
1254
  8
HIDDEN
 10
2.611439
 20
6.589523
 30
0.0
 11
0.846439
 21
6.589523
 31
0.0
  0
LINE
  5
1255
  8
HIDDEN
 10
2.611439
 20
6.209523
 30
0.0
 11
0.636439
 21
6.209523
 31
0.0
  0
LINE
  5
1256
  8
0
 10
0.496439
 20
6.709523
 30
0.0
 11
2.266439
 21
6.742523
 31
0.0
  0
LINE
  5
1257
  8
HIDDEN
 10
2.101439
 20
6.631763
 30
0.0
 11
2.101439
 21
6.474283
 31
0.0
  0
LINE
  5
1258
  8
HIDDEN
 10
2.611439
 20
6.474283
 30
0.0
 11
2.101439
 21
6.474283
 31
0.0
  0
LINE
  5
1259
  8
HIDDEN
 10
2.611439
 20
6.631763
 30
0.0
 11
2.101439
 21
6.631763
 31
0.0
  0
LINE
  5
125A
  8
0
 10
2.506439
 20
6.839523
 30
0.0
 11
2.266439
 21
6.839523
 31
0.0
  0
LINE
  5
125B
  8
0
 10
2.611439
 20
6.704523
 30
0.0
 11
2.506439
 21
6.704523
 31
0.0
  0
LINE
  5
125C
  8
HIDDEN
 10
0.846439
 20
5.480023
 30
0.0
 11
0.636439
 21
5.480023
 31
0.0
  0
LINE
  5
125D
  8
HIDDEN
 10
0.846439
 20
5.272023
 30
0.0
 11
0.636439
 21
5.272023
 31
0.0
  0
LINE
  5
125E
  8
HIDDEN
 10
0.846439
 20
5.413023
 30
0.0
 11
0.636439
 21
5.413023
 31
0.0
  0
LINE
  5
125F
  8
HIDDEN
 10
0.846439
 20
5.205023
 30
0.0
 11
0.636439
 21
5.205023
 31
0.0
  0
LINE
  5
1260
  8
HIDDEN
 10
0.846439
 20
5.480023
 30
0.0
 11
0.846439
 21
5.205023
 31
0.0
  0
LINE
  5
1261
  8
HIDDEN
 10
0.901439
 20
6.474283
 30
0.0
 11
0.901439
 21
6.631763
 31
0.0
  0
LINE
  5
1262
  8
HIDDEN
 10
0.846439
 20
6.589523
 30
0.0
 11
0.846439
 21
6.209523
 31
0.0
  0
LINE
  5
1263
  8
HIDDEN
 10
0.901439
 20
6.474283
 30
0.0
 11
0.496439
 21
6.474283
 31
0.0
  0
LINE
  5
1264
  8
HIDDEN
 10
0.846439
 20
6.463523
 30
0.0
 11
0.636439
 21
6.463523
 31
0.0
  0
LINE
  5
1265
  8
HIDDEN
 10
0.846439
 20
6.318523
 30
0.0
 11
0.636439
 21
6.318523
 31
0.0
  0
LINE
  5
1266
  8
HIDDEN
 10
0.636439
 20
6.463523
 30
0.0
 11
0.636439
 21
6.318523
 31
0.0
  0
LINE
  5
1267
  8
HIDDEN
 10
0.901439
 20
6.631763
 30
0.0
 11
0.496439
 21
6.631763
 31
0.0
  0
LINE
  5
1268
  8
0
 10
11.452634
 20
6.839523
 30
0.0
 11
11.452634
 21
3.292023
 31
0.0
  0
LINE
  5
1269
  8
0
 10
11.692634
 20
6.839523
 30
0.0
 11
11.692634
 21
3.292023
 31
0.0
  0
LINE
  5
126A
  8
0
 10
11.347634
 20
6.704523
 30
0.0
 11
11.347634
 21
3.292023
 31
0.0
  0
LINE
  5
126B
  8
HIDDEN
 10
13.322634
 20
6.209523
 30
0.0
 11
13.322634
 21
3.292023
 31
0.0
  0
LINE
  5
126C
  8
0
 10
13.462634
 20
3.292023
 30
0.0
 11
13.462634
 21
6.709523
 31
0.0
  0
LINE
  5
126D
  8
0
 10
13.462634
 20
6.709523
 30
0.0
 11
11.692634
 21
6.742523
 31
0.0
  0
LINE
  5
126E
  8
HIDDEN
 10
11.347634
 20
6.209523
 30
0.0
 11
13.322634
 21
6.209523
 31
0.0
  0
LINE
  5
126F
  8
HIDDEN
 10
11.347634
 20
6.589523
 30
0.0
 11
13.112634
 21
6.589523
 31
0.0
  0
LINE
  5
1270
  8
0
 10
11.452634
 20
6.839523
 30
0.0
 11
11.692634
 21
6.839523
 31
0.0
  0
LINE
  5
1271
  8
HIDDEN
 10
11.347634
 20
6.631763
 30
0.0
 11
11.857634
 21
6.631763
 31
0.0
  0
LINE
  5
1272
  8
HIDDEN
 10
11.347634
 20
6.474283
 30
0.0
 11
11.857634
 21
6.474283
 31
0.0
  0
LINE
  5
1273
  8
0
 10
11.347634
 20
6.704523
 30
0.0
 11
11.452634
 21
6.704523
 31
0.0
  0
LINE
  5
1274
  8
HIDDEN
 10
11.857634
 20
6.631763
 30
0.0
 11
11.857634
 21
6.474283
 31
0.0
  0
LINE
  5
1275
  8
HIDDEN
 10
13.112634
 20
6.589523
 30
0.0
 11
13.112634
 21
6.209523
 31
0.0
  0
LINE
  5
1276
  8
HIDDEN
 10
13.057634
 20
6.565763
 30
0.0
 11
13.462634
 21
6.565763
 31
0.0
  0
LINE
  5
1277
  8
HIDDEN
 10
13.112634
 20
6.318523
 30
0.0
 11
13.322634
 21
6.318523
 31
0.0
  0
LINE
  5
1278
  8
HIDDEN
 10
13.112634
 20
6.463523
 30
0.0
 11
13.322634
 21
6.463523
 31
0.0
  0
LINE
  5
1279
  8
HIDDEN
 10
13.057634
 20
6.408283
 30
0.0
 11
13.462634
 21
6.408283
 31
0.0
  0
LINE
  5
127A
  8
HIDDEN
 10
13.057634
 20
6.408283
 30
0.0
 11
13.057634
 21
6.565763
 31
0.0
  0
LINE
  5
127B
  8
HIDDEN
 10
13.322634
 20
6.463523
 30
0.0
 11
13.322634
 21
6.318523
 31
0.0
  0
LINE
  5
127C
  8
HIDDEN
 10
13.112634
 20
5.480023
 30
0.0
 11
13.112634
 21
5.205023
 31
0.0
  0
LINE
  5
127D
  8
HIDDEN
 10
13.112634
 20
5.413023
 30
0.0
 11
13.322634
 21
5.413023
 31
0.0
  0
LINE
  5
127E
  8
HIDDEN
 10
13.112634
 20
5.272023
 30
0.0
 11
13.322634
 21
5.272023
 31
0.0
  0
LINE
  5
127F
  8
HIDDEN
 10
13.112634
 20
5.480023
 30
0.0
 11
13.322634
 21
5.480023
 31
0.0
  0
LINE
  5
1280
  8
HIDDEN
 10
13.112634
 20
5.205023
 30
0.0
 11
13.322634
 21
5.205023
 31
0.0
  0
LINE
  5
1286
  8
HIDDEN
 10
6.515232
 20
8.990877
 30
0.0
 11
6.515232
 21
10.755877
 31
0.0
  0
LINE
  5
1287
  8
HIDDEN
 10
6.553732
 20
10.755877
 30
0.0
 11
6.553732
 21
10.965877
 31
0.0
  0
LINE
  5
1288
  8
HIDDEN
 10
6.698732
 20
10.755877
 30
0.0
 11
6.698732
 21
10.965877
 31
0.0
  0
LINE
  5
1289
  8
HIDDEN
 10
7.159732
 20
10.755877
 30
0.0
 11
7.159732
 21
10.965877
 31
0.0
  0
LINE
  5
128B
  8
HIDDEN
 10
6.050232
 20
9.095877
 30
0.0
 11
6.050232
 21
10.755877
 31
0.0
  0
LINE
  5
128C
  8
HIDDEN
 10
6.400232
 20
9.095877
 30
0.0
 11
6.400232
 21
10.755877
 31
0.0
  0
LINE
  5
1290
  8
HIDDEN
 10
6.050232
 20
10.755877
 30
0.0
 11
6.400232
 21
10.755877
 31
0.0
  0
LINE
  5
1291
  8
HIDDEN
 10
6.141732
 20
10.755877
 30
0.0
 11
6.141732
 21
11.105877
 31
0.0
  0
LINE
  5
1292
  8
HIDDEN
 10
6.308732
 20
10.755877
 30
0.0
 11
6.308732
 21
11.105877
 31
0.0
  0
LINE
  5
12A1
  8
HIDDEN
 10
13.057634
 20
0.018283
 30
0.0
 11
13.057634
 21
0.175763
 31
0.0
  0
LINE
  5
12B0
  8
HIDDEN
 10
8.531232
 20
10.965877
 30
0.0
 11
8.386232
 21
10.965877
 31
0.0
  0
LINE
  5
12B1
  8
0
 10
8.772232
 20
8.990877
 30
0.0
 11
7.232232
 21
8.990877
 31
0.0
  0
LINE
  5
12B2
  8
0
 10
8.907232
 20
9.335877
 30
0.0
 11
7.232232
 21
9.335877
 31
0.0
  0
LINE
  5
12B3
  8
0
 10
8.907232
 20
9.095877
 30
0.0
 11
7.232232
 21
9.095877
 31
0.0
  0
LINE
  5
12B4
  8
0
 10
7.232232
 20
11.105877
 30
0.0
 11
8.777232
 21
11.105877
 31
0.0
  0
LINE
  5
12B5
  8
0
 10
8.777232
 20
11.105877
 30
0.0
 11
8.810232
 21
9.335877
 31
0.0
  0
LINE
  5
12B6
  8
HIDDEN
 10
8.657232
 20
8.990877
 30
0.0
 11
8.657232
 21
10.755877
 31
0.0
  0
LINE
  5
12B7
  8
0
 10
8.907232
 20
9.095877
 30
0.0
 11
8.907232
 21
9.335877
 31
0.0
  0
LINE
  5
12B8
  8
HIDDEN
 10
8.699472
 20
8.990877
 30
0.0
 11
8.699472
 21
9.500877
 31
0.0
  0
LINE
  5
12B9
  8
HIDDEN
 10
8.541992
 20
8.990877
 30
0.0
 11
8.541992
 21
9.500877
 31
0.0
  0
LINE
  5
12BA
  8
0
 10
8.772232
 20
8.990877
 30
0.0
 11
8.772232
 21
9.095877
 31
0.0
  0
LINE
  5
12BB
  8
HIDDEN
 10
8.699472
 20
9.500877
 30
0.0
 11
8.541992
 21
9.500877
 31
0.0
  0
LINE
  5
12BC
  8
HIDDEN
 10
8.636472
 20
10.700877
 30
0.0
 11
8.636472
 21
11.105877
 31
0.0
  0
LINE
  5
12BD
  8
HIDDEN
 10
8.478992
 20
10.700877
 30
0.0
 11
8.478992
 21
11.105877
 31
0.0
  0
LINE
  5
12BE
  8
HIDDEN
 10
8.478992
 20
10.700877
 30
0.0
 11
8.636472
 21
10.700877
 31
0.0
  0
LINE
  5
12C2
  8
HIDDEN
 10
8.367862
 20
10.755877
 30
0.0
 11
7.232232
 21
10.755877
 31
0.0
  0
LINE
  5
12C3
  8
HIDDEN
 10
8.277232
 20
10.965877
 30
0.0
 11
7.232232
 21
10.965877
 31
0.0
  0
LINE
  5
12C9
  8
HIDDEN
 10
7.304732
 20
10.755877
 30
0.0
 11
7.304732
 21
10.965877
 31
0.0
  0
LINE
  5
12CA
  8
HIDDEN
 10
8.367862
 20
8.990877
 30
0.0
 11
8.367862
 21
10.755877
 31
0.0
  0
LINE
  5
12CB
  8
HIDDEN
 10
8.131732
 20
10.755877
 30
0.0
 11
8.131732
 21
10.965877
 31
0.0
  0
LINE
  5
12CC
  8
HIDDEN
 10
8.276732
 20
10.755877
 30
0.0
 11
8.276732
 21
10.965877
 31
0.0
  0
LINE
  5
12CD
  8
HIDDEN
 10
8.531232
 20
-4.967695
 30
0.0
 11
8.386232
 21
-4.967695
 31
0.0
  0
LINE
  5
12CE
  8
0
 10
8.772232
 20
-2.992695
 30
0.0
 11
7.232232
 21
-2.992695
 31
0.0
  0
LINE
  5
12CF
  8
0
 10
8.907232
 20
-3.337695
 30
0.0
 11
7.232232
 21
-3.337695
 31
0.0
  0
LINE
  5
12D0
  8
0
 10
8.907232
 20
-3.097695
 30
0.0
 11
7.232232
 21
-3.097695
 31
0.0
  0
LINE
  5
12D1
  8
0
 10
7.232232
 20
-5.107695
 30
0.0
 11
8.777232
 21
-5.107695
 31
0.0
  0
LINE
  5
12D2
  8
0
 10
8.777232
 20
-5.107695
 30
0.0
 11
8.810232
 21
-3.337695
 31
0.0
  0
LINE
  5
12D3
  8
HIDDEN
 10
8.657232
 20
-2.992695
 30
0.0
 11
8.657232
 21
-4.757695
 31
0.0
  0
LINE
  5
12D4
  8
0
 10
8.907232
 20
-3.097695
 30
0.0
 11
8.907232
 21
-3.337695
 31
0.0
  0
LINE
  5
12D5
  8
HIDDEN
 10
8.699472
 20
-2.992695
 30
0.0
 11
8.699472
 21
-3.502695
 31
0.0
  0
LINE
  5
12D6
  8
HIDDEN
 10
8.541992
 20
-2.992695
 30
0.0
 11
8.541992
 21
-3.502695
 31
0.0
  0
LINE
  5
12D7
  8
0
 10
8.772232
 20
-2.992695
 30
0.0
 11
8.772232
 21
-3.097695
 31
0.0
  0
LINE
  5
12D8
  8
HIDDEN
 10
8.699472
 20
-3.502695
 30
0.0
 11
8.541992
 21
-3.502695
 31
0.0
  0
LINE
  5
12D9
  8
HIDDEN
 10
8.636472
 20
-4.702695
 30
0.0
 11
8.636472
 21
-5.107695
 31
0.0
  0
LINE
  5
12DA
  8
HIDDEN
 10
8.478992
 20
-4.702695
 30
0.0
 11
8.478992
 21
-5.107695
 31
0.0
  0
LINE
  5
12DB
  8
HIDDEN
 10
8.478992
 20
-4.702695
 30
0.0
 11
8.636472
 21
-4.702695
 31
0.0
  0
LINE
  5
12DC
  8
HIDDEN
 10
6.096602
 20
-2.992695
 30
0.0
 11
6.096602
 21
-4.757695
 31
0.0
  0
LINE
  5
12DD
  8
HIDDEN
 10
5.807232
 20
-2.992695
 30
0.0
 11
5.807232
 21
-4.757695
 31
0.0
  0
LINE
  5
12DE
  8
0
 10
5.687232
 20
-5.107695
 30
0.0
 11
5.654232
 21
-3.337695
 31
0.0
  0
LINE
  5
12DF
  8
HIDDEN
 10
8.064232
 20
-3.097695
 30
0.0
 11
8.064232
 21
-4.757695
 31
0.0
  0
LINE
  5
12E0
  8
HIDDEN
 10
8.414232
 20
-3.097695
 30
0.0
 11
8.414232
 21
-4.757695
 31
0.0
  0
LINE
  5
12E1
  8
HIDDEN
 10
7.949232
 20
-2.992695
 30
0.0
 11
7.949232
 21
-4.757695
 31
0.0
  0
LINE
  5
12E2
  8
0
 10
5.557232
 20
-3.097695
 30
0.0
 11
7.232232
 21
-3.097695
 31
0.0
  0
LINE
  5
12E3
  8
0
 10
5.557232
 20
-3.337695
 30
0.0
 11
7.232232
 21
-3.337695
 31
0.0
  0
LINE
  5
12E4
  8
0
 10
5.692232
 20
-2.992695
 30
0.0
 11
7.232232
 21
-2.992695
 31
0.0
  0
LINE
  5
12E5
  8
HIDDEN
 10
5.922472
 20
-2.992695
 30
0.0
 11
5.922472
 21
-3.502695
 31
0.0
  0
LINE
  5
12E6
  8
HIDDEN
 10
5.764992
 20
-2.992695
 30
0.0
 11
5.764992
 21
-3.502695
 31
0.0
  0
LINE
  5
12E7
  8
0
 10
5.557232
 20
-3.097695
 30
0.0
 11
5.557232
 21
-3.337695
 31
0.0
  0
LINE
  5
12E8
  8
0
 10
5.692232
 20
-2.992695
 30
0.0
 11
5.692232
 21
-3.097695
 31
0.0
  0
LINE
  5
12E9
  8
HIDDEN
 10
5.764992
 20
-3.502695
 30
0.0
 11
5.922472
 21
-3.502695
 31
0.0
  0
LINE
  5
12EA
  8
HIDDEN
 10
6.096602
 20
-4.757695
 30
0.0
 11
7.232232
 21
-4.757695
 31
0.0
  0
LINE
  5
12EB
  8
HIDDEN
 10
6.187232
 20
-4.967695
 30
0.0
 11
7.232232
 21
-4.967695
 31
0.0
  0
LINE
  5
12EC
  8
0
 10
7.232232
 20
-5.107695
 30
0.0
 11
5.687232
 21
-5.107695
 31
0.0
  0
LINE
  5
12ED
  8
HIDDEN
 10
7.949232
 20
-4.757695
 30
0.0
 11
7.232232
 21
-4.757695
 31
0.0
  0
LINE
  5
12EE
  8
HIDDEN
 10
8.277232
 20
-4.967695
 30
0.0
 11
7.232232
 21
-4.967695
 31
0.0
  0
LINE
  5
12EF
  8
HIDDEN
 10
8.155732
 20
-4.757695
 30
0.0
 11
8.155732
 21
-5.107695
 31
0.0
  0
LINE
  5
12F0
  8
HIDDEN
 10
8.322732
 20
-4.757695
 30
0.0
 11
8.322732
 21
-5.107695
 31
0.0
  0
LINE
  5
12F1
  8
HIDDEN
 10
8.414232
 20
-4.757695
 30
0.0
 11
8.064232
 21
-4.757695
 31
0.0
  0
LINE
  5
12F2
  8
HIDDEN
 10
7.910732
 20
-4.757695
 30
0.0
 11
7.910732
 21
-4.967695
 31
0.0
  0
LINE
  5
12F3
  8
HIDDEN
 10
7.765732
 20
-4.757695
 30
0.0
 11
7.765732
 21
-4.967695
 31
0.0
  0
LINE
  5
12F4
  8
HIDDEN
 10
7.159732
 20
-4.757695
 30
0.0
 11
7.159732
 21
-4.967695
 31
0.0
  0
LINE
  5
12F5
  8
HIDDEN
 10
7.304732
 20
-4.757695
 30
0.0
 11
7.304732
 21
-4.967695
 31
0.0
  0
LINE
  5
12F6
  8
HIDDEN
 10
6.187732
 20
-4.757695
 30
0.0
 11
6.187732
 21
-4.967695
 31
0.0
  0
LINE
  5
12F7
  8
HIDDEN
 10
6.332732
 20
-4.757695
 30
0.0
 11
6.332732
 21
-4.967695
 31
0.0
  0
LINE
  5
12F8
  8
HIDDEN
 10
5.985472
 20
-4.702695
 30
0.0
 11
5.985472
 21
-5.107695
 31
0.0
  0
LINE
  5
12F9
  8
HIDDEN
 10
5.827992
 20
-4.702695
 30
0.0
 11
5.827992
 21
-5.107695
 31
0.0
  0
LINE
  5
12FA
  8
HIDDEN
 10
5.985472
 20
-4.702695
 30
0.0
 11
5.827992
 21
-4.702695
 31
0.0
  0
LINE
  5
12FB
  8
HIDDEN
 10
5.933232
 20
-4.967695
 30
0.0
 11
6.078232
 21
-4.967695
 31
0.0
  0
LINE
  5
12FE
  8
0
 10
19.83937
 20
5.555023
 30
0.0
 11
20.02387
 21
5.555023
 31
0.0
  0
CIRCLE
  5
12FF
  8
0
 10
19.83937
 20
5.417523
 30
0.0
 40
0.0705
  0
LINE
  5
1300
  8
0
 10
19.83937
 20
5.280023
 30
0.0
 11
20.02387
 21
5.280023
 31
0.0
  0
LINE
  5
1301
  8
0
 10
19.60902
 20
0.374523
 30
0.0
 11
20.018879
 21
0.374523
 31
0.0
  0
POLYLINE
  5
1306
  8
0
 66
     1
 10
0.0
 20
0.0
 30
0.0
 70
     1
  0
VERTEX
  5
173C
  8
0
 10
20.31387
 20
6.603323
 30
0.0
 42
0.414214
  0
VERTEX
  5
173D
  8
0
 10
20.07767
 20
6.839523
 30
0.0
  0
VERTEX
  5
173E
  8
0
 10
17.20007
 20
6.839523
 30
0.0
 42
0.414214
  0
VERTEX
  5
173F
  8
0
 10
16.96387
 20
6.603323
 30
0.0
  0
VERTEX
  5
1740
  8
0
 10
16.96387
 20
-0.019277
 30
0.0
 42
0.414214
  0
VERTEX
  5
1741
  8
0
 10
17.20007
 20
-0.255477
 30
0.0
  0
VERTEX
  5
1742
  8
0
 10
20.07767
 20
-0.255477
 30
0.0
 42
0.414214
  0
VERTEX
  5
1743
  8
0
 10
20.31387
 20
-0.019277
 30
0.0
  0
SEQEND
  5
1744
  8
0
  0
CIRCLE
  5
130A
  8
0
 10
20.03387
 20
0.031023
 30
0.0
 40
0.07874
  0
ARC
  5
130B
  8
0
 10
20.021251
 20
0.413903
 30
0.0
 40
0.1181
 50
90.0
 51
180.0
  0
LINE
  5
130C
  8
0
 10
19.903151
 20
0.413903
 30
0.0
 11
19.903151
 21
0.374523
 31
0.0
  0
LINE
  5
130D
  8
0
 10
20.021251
 20
0.532003
 30
0.0
 11
20.02387
 21
0.532003
 31
0.0
  0
CIRCLE
  5
130E
  8
0
 10
20.03387
 20
6.553023
 30
0.0
 40
0.07874
  0
CIRCLE
  5
1313
  8
0
 10
19.60087
 20
0.193023
 30
0.0
 40
0.0725
  0
CIRCLE
  5
1319
  8
0
 10
17.24387
 20
0.031023
 30
0.0
 40
0.07874
  0
ARC
  5
131A
  8
0
 10
17.43837
 20
1.166523
 30
0.0
 40
0.1375
 50
270.0
 51
90.0
  0
LINE
  5
131B
  8
0
 10
17.43837
 20
1.029023
 30
0.0
 11
17.25387
 21
1.029023
 31
0.0
  0
CIRCLE
  5
131C
  8
0
 10
17.43837
 20
1.166523
 30
0.0
 40
0.0705
  0
LINE
  5
131D
  8
0
 10
17.43837
 20
1.304023
 30
0.0
 11
17.25387
 21
1.304023
 31
0.0
  0
ARC
  5
131F
  8
0
 10
19.83937
 20
5.417523
 30
0.0
 40
0.1375
 50
90.0
 51
270.0
  0
CIRCLE
  5
1324
  8
0
 10
17.24387
 20
6.553023
 30
0.0
 40
0.07874
  0
POLYLINE
  5
133B
  8
0
 66
     1
 10
0.0
 20
0.0
 30
0.0
 70
     1
  0
VERTEX
  5
1745
  8
0
 10
20.02387
 20
6.091423
 30
0.0
 42
0.414214
  0
VERTEX
  5
1746
  8
0
 10
19.94577
 20
6.169523
 30
0.0
  0
VERTEX
  5
1747
  8
0
 10
19.61177
 20
6.169523
 30
0.0
 42
-0.414214
  0
VERTEX
  5
1748
  8
0
 10
19.31587
 20
6.465423
 30
0.0
  0
VERTEX
  5
1749
  8
0
 10
19.31587
 20
6.471423
 30
0.0
 42
0.414214
  0
VERTEX
  5
174A
  8
0
 10
19.23777
 20
6.549523
 30
0.0
  0
VERTEX
  5
174B
  8
0
 10
17.62134
 20
6.549523
 30
0.0
 42
0.414214
  0
VERTEX
  5
174C
  8
0
 10
17.54324
 20
6.471423
 30
0.0
  0
VERTEX
  5
174D
  8
0
 10
17.54324
 20
6.418253
 30
0.0
 42
-0.414214
  0
VERTEX
  5
174E
  8
0
 10
17.38514
 20
6.260153
 30
0.0
  0
VERTEX
  5
174F
  8
0
 10
17.33197
 20
6.260153
 30
0.0
 42
0.414214
  0
VERTEX
  5
1750
  8
0
 10
17.25387
 20
6.182053
 30
0.0
  0
VERTEX
  5
1751
  8
0
 10
17.25387
 20
0.492623
 30
0.0
 42
0.414214
  0
VERTEX
  5
1752
  8
0
 10
17.33197
 20
0.414523
 30
0.0
  0
VERTEX
  5
1753
  8
0
 10
17.66597
 20
0.414523
 30
0.0
 42
-0.414214
  0
VERTEX
  5
1754
  8
0
 10
17.96187
 20
0.118623
 30
0.0
  0
VERTEX
  5
1755
  8
0
 10
17.96187
 20
0.112623
 30
0.0
 42
0.414214
  0
VERTEX
  5
1756
  8
0
 10
18.03997
 20
0.034523
 30
0.0
  0
VERTEX
  5
1757
  8
0
 10
19.6564
 20
0.034523
 30
0.0
 42
0.414214
  0
VERTEX
  5
1758
  8
0
 10
19.7345
 20
0.112623
 30
0.0
  0
VERTEX
  5
1759
  8
0
 10
19.7345
 20
0.165793
 30
0.0
 42
-0.414214
  0
VERTEX
  5
175A
  8
0
 10
19.8926
 20
0.323893
 30
0.0
  0
VERTEX
  5
175B
  8
0
 10
19.94577
 20
0.323893
 30
0.0
 42
0.414214
  0
VERTEX
  5
175C
  8
0
 10
20.02387
 20
0.401993
 30
0.0
  0
SEQEND
  5
175D
  8
0
  0
CIRCLE
  5
133C
  8
0
 10
17.24387
 20
0.031023
 30
0.0
 40
0.1535
  0
CIRCLE
  5
133D
  8
0
 10
20.03387
 20
6.553023
 30
0.0
 40
0.1535
  0
LINE
  5
133F
  8
0
 10
19.43187
 20
0.197373
 30
0.0
 11
19.43187
 21
0.034523
 31
0.0
  0
ARC
  5
134F
  8
0
 10
19.60902
 20
0.197373
 30
0.0
 40
0.17715
 50
90.0
 51
180.0
  0
POLYLINE
  5
135E
  8
0
 66
     1
 10
0.0
 20
0.0
 30
0.0
 70
     1
  0
VERTEX
  5
175E
  8
0
 10
20.09887
 20
6.091423
 30
0.0
 42
0.414214
  0
VERTEX
  5
175F
  8
0
 10
19.94577
 20
6.244523
 30
0.0
  0
VERTEX
  5
1760
  8
0
 10
19.61177
 20
6.244523
 30
0.0
 42
-0.414214
  0
VERTEX
  5
1761
  8
0
 10
19.39087
 20
6.465423
 30
0.0
  0
VERTEX
  5
1762
  8
0
 10
19.39087
 20
6.471423
 30
0.0
 42
0.414214
  0
VERTEX
  5
1763
  8
0
 10
19.23777
 20
6.624523
 30
0.0
  0
VERTEX
  5
1764
  8
0
 10
17.62134
 20
6.624523
 30
0.0
 42
0.414214
  0
VERTEX
  5
1765
  8
0
 10
17.46824
 20
6.471423
 30
0.0
  0
VERTEX
  5
1766
  8
0
 10
17.46824
 20
6.418253
 30
0.0
 42
-0.414214
  0
VERTEX
  5
1767
  8
0
 10
17.38514
 20
6.335153
 30
0.0
  0
VERTEX
  5
1768
  8
0
 10
17.33197
 20
6.335153
 30
0.0
 42
0.414214
  0
VERTEX
  5
1769
  8
0
 10
17.17887
 20
6.182053
 30
0.0
  0
VERTEX
  5
176A
  8
0
 10
17.17887
 20
0.492623
 30
0.0
 42
0.414214
  0
VERTEX
  5
176B
  8
0
 10
17.33197
 20
0.339523
 30
0.0
  0
VERTEX
  5
176C
  8
0
 10
17.66597
 20
0.339523
 30
0.0
 42
-0.414214
  0
VERTEX
  5
176D
  8
0
 10
17.88687
 20
0.118623
 30
0.0
  0
VERTEX
  5
176E
  8
0
 10
17.88687
 20
0.112623
 30
0.0
 42
0.414214
  0
VERTEX
  5
176F
  8
0
 10
18.03997
 20
-0.040477
 30
0.0
  0
VERTEX
  5
1770
  8
0
 10
19.6564
 20
-0.040477
 30
0.0
 42
0.414214
  0
VERTEX
  5
1771
  8
0
 10
19.8095
 20
0.112623
 30
0.0
  0
VERTEX
  5
1772
  8
0
 10
19.8095
 20
0.165793
 30
0.0
 42
-0.414214
  0
VERTEX
  5
1773
  8
0
 10
19.8926
 20
0.248893
 30
0.0
  0
VERTEX
  5
1774
  8
0
 10
19.94577
 20
0.248893
 30
0.0
 42
0.414214
  0
VERTEX
  5
1775
  8
0
 10
20.09887
 20
0.401993
 30
0.0
  0
SEQEND
  5
1776
  8
0
  0
POLYLINE
  5
135F
  8
0
 66
     1
 10
0.0
 20
0.0
 30
0.0
 70
     1
  0
VERTEX
  5
1777
  8
0
 10
20.20387
 20
6.091423
 30
0.0
 42
0.414214
  0
VERTEX
  5
1778
  8
0
 10
19.94577
 20
6.349523
 30
0.0
  0
VERTEX
  5
1779
  8
0
 10
19.61177
 20
6.349523
 30
0.0
 42
-0.414214
  0
VERTEX
  5
177A
  8
0
 10
19.49587
 20
6.465423
 30
0.0
  0
VERTEX
  5
177B
  8
0
 10
19.49587
 20
6.471423
 30
0.0
 42
0.414214
  0
VERTEX
  5
177C
  8
0
 10
19.23777
 20
6.729523
 30
0.0
  0
VERTEX
  5
177D
  8
0
 10
17.62134
 20
6.729523
 30
0.0
 42
0.414214
  0
VERTEX
  5
177E
  8
0
 10
17.36324
 20
6.471423
 30
0.0
  0
VERTEX
  5
177F
  8
0
 10
17.36324
 20
6.440153
 30
0.0
  0
VERTEX
  5
1780
  8
0
 10
17.33197
 20
6.440153
 30
0.0
 42
0.414214
  0
VERTEX
  5
1781
  8
0
 10
17.07387
 20
6.182053
 30
0.0
  0
VERTEX
  5
1782
  8
0
 10
17.07387
 20
0.492623
 30
0.0
 42
0.414214
  0
VERTEX
  5
1783
  8
0
 10
17.33197
 20
0.234523
 30
0.0
  0
VERTEX
  5
1784
  8
0
 10
17.66597
 20
0.234523
 30
0.0
 42
-0.414214
  0
VERTEX
  5
1785
  8
0
 10
17.78187
 20
0.118623
 30
0.0
  0
VERTEX
  5
1786
  8
0
 10
17.78187
 20
0.112623
 30
0.0
 42
0.414214
  0
VERTEX
  5
1787
  8
0
 10
18.03997
 20
-0.145477
 30
0.0
  0
VERTEX
  5
1788
  8
0
 10
19.6564
 20
-0.145477
 30
0.0
 42
0.414214
  0
VERTEX
  5
1789
  8
0
 10
19.9145
 20
0.112623
 30
0.0
  0
VERTEX
  5
178A
  8
0
 10
19.9145
 20
0.143893
 30
0.0
  0
VERTEX
  5
178B
  8
0
 10
19.94577
 20
0.143893
 30
0.0
 42
0.414214
  0
VERTEX
  5
178C
  8
0
 10
20.20387
 20
0.401993
 30
0.0
  0
SEQEND
  5
178D
  8
0
  0
LINE
  5
1362
  8
0
 10
23.366761
 20
6.752707
 30
0.0
 11
23.366761
 21
-0.142293
 31
0.0
  0
LINE
  5
1364
  8
0
 10
22.776761
 20
6.852707
 30
0.0
 11
22.776761
 21
-0.242293
 31
0.0
  0
LINE
  5
1365
  8
0
 10
22.589761
 20
6.637707
 30
0.0
 11
22.776761
 21
6.637707
 31
0.0
  0
LINE
  5
1366
  8
0
 10
22.589761
 20
-0.027293
 30
0.0
 11
22.776761
 21
-0.027293
 31
0.0
  0
LINE
  5
1367
  8
0
 10
22.776761
 20
-0.242293
 30
0.0
 11
23.266761
 21
-0.242293
 31
0.0
  0
LINE
  5
1368
  8
0
 10
22.776761
 20
6.852707
 30
0.0
 11
23.266761
 21
6.852707
 31
0.0
  0
LINE
  5
1369
  8
0
 10
22.589761
 20
6.637707
 30
0.0
 11
22.589761
 21
-0.027293
 31
0.0
  0
LINE
  5
136A
  8
0
 10
23.366761
 20
-0.142293
 30
0.0
 11
23.266761
 21
-0.242293
 31
0.0
  0
LINE
  5
136B
  8
0
 10
23.366761
 20
6.752707
 30
0.0
 11
23.266761
 21
6.852707
 31
0.0
  0
LINE
  5
136C
  8
HIDDEN
 10
22.589761
 20
6.562707
 30
0.0
 11
23.234761
 21
6.562707
 31
0.0
  0
LINE
  5
136D
  8
HIDDEN
 10
22.589761
 20
0.047707
 30
0.0
 11
23.234761
 21
0.047707
 31
0.0
  0
LINE
  5
136E
  8
HIDDEN
 10
22.589761
 20
0.427707
 30
0.0
 11
23.234761
 21
0.427707
 31
0.0
  0
LINE
  5
136F
  8
HIDDEN
 10
22.589761
 20
6.182707
 30
0.0
 11
23.234761
 21
6.182707
 31
0.0
  0
LINE
  5
1370
  8
HIDDEN
 10
23.234761
 20
6.562707
 30
0.0
 11
23.234761
 21
0.047707
 31
0.0
  0
LINE
  5
1371
  8
HIDDEN
 10
22.776761
 20
6.487467
 30
0.0
 11
23.241761
 21
6.487467
 31
0.0
  0
LINE
  5
1372
  8
HIDDEN
 10
22.776761
 20
6.644947
 30
0.0
 11
23.241761
 21
6.644947
 31
0.0
  0
LINE
  5
1374
  8
HIDDEN
 10
23.241761
 20
6.719707
 30
0.0
 11
23.241761
 21
6.412707
 31
0.0
  0
LINE
  5
1375
  8
HIDDEN
 10
23.241761
 20
6.719707
 30
0.0
 11
23.366761
 21
6.719707
 31
0.0
  0
LINE
  5
1376
  8
HIDDEN
 10
23.241761
 20
6.412707
 30
0.0
 11
23.366761
 21
6.412707
 31
0.0
  0
LINE
  5
1377
  8
HIDDEN
 10
23.241761
 20
0.197707
 30
0.0
 11
23.366761
 21
0.197707
 31
0.0
  0
LINE
  5
1378
  8
HIDDEN
 10
23.241761
 20
-0.109293
 30
0.0
 11
23.366761
 21
-0.109293
 31
0.0
  0
LINE
  5
1379
  8
HIDDEN
 10
22.776761
 20
-0.034533
 30
0.0
 11
23.241761
 21
-0.034533
 31
0.0
  0
LINE
  5
137A
  8
HIDDEN
 10
23.241761
 20
-0.109293
 30
0.0
 11
23.241761
 21
0.197707
 31
0.0
  0
LINE
  5
137B
  8
HIDDEN
 10
22.776761
 20
0.122947
 30
0.0
 11
23.241761
 21
0.122947
 31
0.0
  0
DIMENSION
  5
1389
  8
DIMENSION
  2
*D2
 10
23.366761
 20
-1.769812
 30
0.0
 11
21.462678
 21
-1.769812
 31
0.0
 12
-0.839392
 22
0.013184
 32
0.0
 70
   128
  1
 <>\P[]
 13
22.589761
 23
-0.027293
 33
0.0
 14
23.366761
 24
-0.142293
 34
0.0
1001
ACAD
1000
DSTYLE
1002
{
1070
   288
1070
     1
1070
   140
1040
0.125
1070
    73
1070
     0
1070
     3
1000
"
1070
   287
1070
     0
1070
   271
1070
     2
1070
   141
1040
0.0
1070
     4
1000
mm
1070
   171
1070
     1
1070
   170
1070
     1
1002
}
  0
DIMENSION
  5
1397
  8
DIMENSION
  2
*D3
 10
23.366761
 20
-1.059151
 30
0.0
 11
21.660094
 21
-1.059151
 31
0.0
 12
-0.839392
 22
0.013184
 32
0.0
 70
   128
  1
 <>\P[]
 13
22.776761
 23
-0.242293
 33
0.0
 14
23.366761
 24
-0.109293
 34
0.0
1001
ACAD
1000
DSTYLE
1002
{
1070
   288
1070
     1
1070
   140
1040
0.125
1070
    73
1070
     0
1070
     3
1000
"
1070
   287
1070
     0
1070
   271
1070
     2
1070
   141
1040
0.0
1070
     4
1000
mm
1070
   171
1070
     1
1070
   170
1070
     1
1002
}
  0
DIMENSION
  5
13A5
  8
DIMENSION
  2
*D4
 10
23.234761
 20
8.082545
 30
0.0
 11
21.462678
 21
8.082545
 31
0.0
 12
-0.839392
 22
0.013184
 32
0.0
 70
   128
  1
 <>\P[]
 13
22.589761
 23
6.637707
 33
0.0
 14
23.234761
 24
6.182707
 34
0.0
1001
ACAD
1000
DSTYLE
1002
{
1070
   288
1070
     1
1070
   140
1040
0.125
1070
    73
1070
     0
1070
     3
1000
"
1070
   287
1070
     0
1070
   271
1070
     2
1070
   141
1040
0.0
1070
     4
1000
mm
1070
   171
1070
     1
1070
   170
1070
     1
1002
}
  0
DIMENSION
  5
13D7
  8
DIMENSION
  2
*D5
 10
20.834401
 20
0.323893
 30
0.0
 11
20.834401
 21
3.264553
 31
0.0
 12
-1.218292
 22
0.0
 32
0.0
 70
   128
  1
 <>\P[]
 13
19.77877
 23
6.169523
 33
0.0
 14
19.8926
 24
0.323893
 34
0.0
 50
90.0
1001
ACAD
1000
DSTYLE
1002
{
1070
   288
1070
     1
1070
   140
1040
0.125
1070
    73
1070
     0
1070
     3
1000
"
1070
   287
1070
     0
1070
   271
1070
     2
1070
   141
1040
0.0
1070
     4
1000
mm
1070
   171
1070
     1
1070
   170
1070
     1
1002
}
  0
DIMENSION
  5
13E5
  8
DIMENSION
  2
*D6
 10
21.50922
 20
6.553023
 30
0.0
 11
21.50922
 21
3.264553
 31
0.0
 12
-1.218292
 22
0.0
 32
0.0
 70
   128
  1
 <>\P[]
 13
20.03387
 23
0.031023
 33
0.0
 14
20.03387
 24
6.553023
 34
0.0
 50
90.0
1001
ACAD
1000
DSTYLE
1002
{
1070
   288
1070
     1
1070
   140
1040
0.125
1070
    73
1070
     0
1070
     3
1000
"
1070
   287
1070
     0
1070
   271
1070
     2
1070
   141
1040
0.0
1070
     4
1000
mm
1070
   171
1070
     1
1070
   170
1070
     1
1002
}
  0
DIMENSION
  5
140B
  8
DIMENSION
  2
*D7
 10
19.7345
 20
-0.837989
 30
0.0
 11
18.868624
 21
-0.837989
 31
0.0
 12
-1.218292
 22
0.0
 32
0.0
 70
   128
  1
 <>\P[]
 13
17.96187
 23
0.118623
 33
0.0
 14
19.7345
 24
0.165793
 34
0.0
1001
ACAD
1000
DSTYLE
1002
{
1070
   288
1070
     1
1070
   140
1040
0.125
1070
    73
1070
     0
1070
     3
1000
"
1070
   287
1070
     0
1070
   271
1070
     2
1070
   141
1040
0.0
1070
     4
1000
mm
1070
   171
1070
     1
1070
   170
1070
     1
1002
}
  0
DIMENSION
  5
1419
  8
DIMENSION
  2
*D8
 10
17.24387
 20
-1.570586
 30
0.0
 11
18.751264
 21
-1.570586
 31
0.0
 12
-1.218292
 22
0.0
 32
0.0
 70
   128
  1
 <>\P[]
 13
20.03387
 23
0.031023
 33
0.0
 14
17.24387
 24
0.031023
 34
0.0
1001
ACAD
1000
DSTYLE
1002
{
1070
   288
1070
     1
1070
   140
1040
0.125
1070
    73
1070
     0
1070
     3
1000
"
1070
   287
1070
     0
1070
   271
1070
     2
1070
   141
1040
0.0
1070
     4
1000
mm
1070
   171
1070
     1
1070
   170
1070
     1
1002
}
  0
DIMENSION
  5
143F
  8
DIMENSION
  2
*D9
 10
16.374728
 20
0.034523
 30
0.0
 11
16.374728
 21
3.381769
 31
0.0
 12
-1.218292
 22
0.0
 32
0.0
 70
   128
  1
 <>\P[]
 13
17.62134
 23
6.549523
 33
0.0
 14
18.03997
 24
0.034523
 34
0.0
 50
90.0
1001
ACAD
1000
DSTYLE
1002
{
1070
   288
1070
     1
1070
   140
1040
0.125
1070
    73
1070
     0
1070
     3
1000
"
1070
   287
1070
     0
1070
   271
1070
     2
1070
   141
1040
0.0
1070
     4
1000
mm
1070
   171
1070
     1
1070
   170
1070
     1
1002
}
  0
DIMENSION
  5
144D
  8
DIMENSION
  2
*D10
 10
15.699909
 20
6.839523
 30
0.0
 11
15.699909
 21
3.381769
 31
0.0
 12
-1.218292
 22
0.0
 32
0.0
 70
   128
  1
 <>\P[]
 13
17.24387
 23
-0.255477
 33
0.0
 14
17.20007
 24
6.839523
 34
0.0
 50
90.0
1001
ACAD
1000
DSTYLE
1002
{
1070
   288
1070
     1
1070
   140
1040
0.125
1070
    73
1070
     0
1070
     3
1000
"
1070
   287
1070
     0
1070
   271
1070
     2
1070
   141
1040
0.0
1070
     4
1000
mm
1070
   171
1070
     1
1070
   170
1070
     1
1002
}
  0
DIMENSION
  5
145B
  8
DIMENSION
  2
*D11
 10
20.02387
 20
7.455008
 30
0.0
 11
18.545885
 21
7.455008
 31
0.0
 12
-1.218292
 22
0.0
 32
0.0
 70
   128
  1
 <>\P[]
 13
17.25387
 23
6.182053
 33
0.0
 14
20.02387
 24
6.091423
 34
0.0
1001
ACAD
1000
DSTYLE
1002
{
1070
   288
1070
     1
1070
   140
1040
0.125
1070
    73
1070
     0
1070
     3
1000
"
1070
   287
1070
     0
1070
   271
1070
     2
1070
   141
1040
0.0
1070
     4
1000
mm
1070
   171
1070
     1
1070
   170
1070
     1
1002
}
  0
DIMENSION
  5
1469
  8
DIMENSION
  2
*D12
 10
16.96387
 20
8.187605
 30
0.0
 11
18.633905
 21
8.187605
 31
0.0
 12
-1.218292
 22
0.0
 32
0.0
 70
   128
  1
 <>\P[]
 13
20.31387
 23
6.553023
 33
0.0
 14
16.96387
 24
6.603323
 34
0.0
1001
ACAD
1000
DSTYLE
1002
{
1070
   288
1070
     1
1070
   140
1040
0.125
1070
    73
1070
     0
1070
     3
1000
"
1070
   287
1070
     0
1070
   271
1070
     2
1070
   141
1040
0.0
1070
     4
1000
mm
1070
   171
1070
     1
1070
   170
1070
     1
1002
}
  0
DIMENSION
  5
14A4
  8
DIMENSION
  2
*D13
 10
17.66597
 20
0.118623
 30
0.0
 11
18.957002
 21
0.715905
 31
0.0
 12
-1.218292
 22
0.0
 32
0.0
 70
   132
  1
 <>\P[]
 15
17.868875
 25
0.333998
 35
0.0
 40
0.0
1001
ACAD
1000
DSTYLE
1002
{
1070
   288
1070
     1
1070
   140
1040
0.125
1070
    73
1070
     0
1070
     3
1000
"
1070
   287
1070
     0
1070
   271
1070
     2
1070
   141
1040
0.0
1070
     4
1000
mm
1070
   171
1070
     1
1070
   170
1070
     1
1002
}
  0
DIMENSION
  5
14B6
  8
DIMENSION
  2
*D14
 10
17.20007
 20
-0.019277
 30
0.0
 11
15.758589
 21
-0.867293
 31
0.0
 12
-1.218292
 22
0.0
 32
0.0
 70
   132
  1
 <>\P[]
 15
17.046757
 25
-0.19896
 35
0.0
 40
0.0
1001
ACAD
1000
DSTYLE
1002
{
1070
   288
1070
     1
1070
   140
1040
0.125
1070
    73
1070
     0
1070
     3
1000
"
1070
   287
1070
     0
1070
   271
1070
     2
1070
   141
1040
0.0
1070
     4
1000
mm
1070
   171
1070
     1
1070
   170
1070
     1
1002
}
  0
DIMENSION
  5
14CC
  8
DIMENSION
  2
*D15
 10
14.001426
 20
-0.125477
 30
0.0
 11
14.001426
 21
3.31004
 31
0.0
 12
-0.505391
 22
0.0
 32
0.0
 70
   128
  1
 <>\P[]
 13
13.462634
 23
6.709523
 33
0.0
 14
13.462634
 24
-0.125477
 34
0.0
 50
90.0
1001
ACAD
1000
DSTYLE
1002
{
1070
   288
1070
     1
1070
   140
1040
0.125
1070
    73
1070
     0
1070
     3
1000
"
1070
   287
1070
     0
1070
   271
1070
     2
1070
   141
1040
0.0
1070
     4
1000
mm
1070
   171
1070
     1
1070
   170
1070
     1
1002
}
  0
DIMENSION
  5
14E6
  8
DIMENSION
  2
*D16
 10
8.777232
 20
11.740457
 30
0.0
 11
7.193542
 21
11.740457
 31
0.0
 12
0.0
 22
-0.585862
 32
0.0
 70
   128
  1
 <>\P[]
 13
5.687232
 23
11.105877
 33
0.0
 14
8.777232
 24
11.105877
 34
0.0
1001
ACAD
1000
DSTYLE
1002
{
1070
   288
1070
     1
1070
   140
1040
0.125
1070
    73
1070
     0
1070
     3
1000
"
1070
   287
1070
     0
1070
   271
1070
     2
1070
   141
1040
0.0
1070
     4
1000
mm
1070
   171
1070
     1
1070
   170
1070
     1
1002
}
  0
DIMENSION
  5
1500
  8
DIMENSION
  2
*D17
 10
7.949232
 20
-0.668531
 30
0.0
 11
7.045078
 21
-0.668531
 31
0.0
 70
   128
  1
 <>\P[]
 13
6.096602
 23
0.112623
 33
0.0
 14
7.949232
 24
0.115623
 34
0.0
1001
ACAD
1000
DSTYLE
1002
{
1070
   288
1070
     1
1070
   140
1040
0.125
1070
    73
1070
     0
1070
     3
1000
"
1070
   287
1070
     0
1070
   271
1070
     2
1070
   141
1040
0.0
1070
     4
1000
mm
1070
   171
1070
     1
1070
   170
1070
     1
1002
}
  0
DIMENSION
  5
150E
  8
DIMENSION
  2
*D18
 10
5.807232
 20
-1.416441
 30
0.0
 11
7.282208
 21
-1.416441
 31
0.0
 70
   128
  1
 <>\P[]
 13
8.657232
 23
0.492623
 33
0.0
 14
5.807232
 24
0.401993
 34
0.0
1001
ACAD
1000
DSTYLE
1002
{
1070
   288
1070
     1
1070
   140
1040
0.125
1070
    73
1070
     0
1070
     3
1000
"
1070
   287
1070
     0
1070
   271
1070
     2
1070
   141
1040
0.0
1070
     4
1000
mm
1070
   171
1070
     1
1070
   170
1070
     1
1002
}
  0
DIMENSION
  5
151C
  8
DIMENSION
  2
*D19
 10
5.557232
 20
-2.201745
 30
0.0
 11
7.34461
 21
-2.201745
 31
0.0
 70
   128
  1
 <>\P[]
 13
8.907232
 23
-0.019277
 33
0.0
 14
5.557232
 24
-0.019277
 34
0.0
1001
ACAD
1000
DSTYLE
1002
{
1070
   288
1070
     1
1070
   140
1040
0.125
1070
    73
1070
     0
1070
     3
1000
"
1070
   287
1070
     0
1070
   271
1070
     2
1070
   141
1040
0.0
1070
     4
1000
mm
1070
   171
1070
     1
1070
   170
1070
     1
1002
}
  0
DIMENSION
  5
155C
  8
DIMENSION
  2
*D20
 10
7.232232
 20
7.521074
 30
0.0
 11
9.352149
 21
7.521074
 31
0.0
 70
   128
  1
 <>\P[]
 13
8.204232
 23
6.391023
 33
0.0
 14
7.232232
 24
6.391023
 34
0.0
1001
ACAD
1000
DSTYLE
1002
{
1070
   288
1070
     1
1070
   140
1040
0.125
1070
    73
1070
     0
1070
     3
1000
"
1070
   287
1070
     0
1070
   271
1070
     2
1070
   141
1040
0.0
1070
     4
1000
mm
1070
   171
1070
     1
1070
   170
1070
     1
1002
}
  0
DIMENSION
  5
1582
  8
DIMENSION
  2
*D21
 10
8.627232
 20
8.43103
 30
0.0
 11
7.219805
 21
8.43103
 31
0.0
 70
   128
  1
 <>\P[]
 13
5.837232
 23
6.553023
 33
0.0
 14
8.627232
 24
6.553023
 34
0.0
1001
ACAD
1000
DSTYLE
1002
{
1070
   288
1070
     1
1070
   140
1040
0.125
1070
    73
1070
     0
1070
     3
1000
"
1070
   287
1070
     0
1070
   271
1070
     2
1070
   141
1040
0.0
1070
     4
1000
mm
1070
   171
1070
     1
1070
   170
1070
     1
1002
}
  0
DIMENSION
  5
159C
  8
DIMENSION
  2
*D22
 10
6.626232
 20
7.309166
 30
0.0
 11
5.247886
 21
7.309166
 31
0.0
 70
   128
  1
 <>\P[]
 13
7.232232
 23
6.391023
 33
0.0
 14
6.626232
 24
6.391023
 34
0.0
1001
ACAD
1000
DSTYLE
1002
{
1070
   288
1070
     1
1070
   140
1040
0.125
1070
    73
1070
     0
1070
     3
1000
"
1070
   287
1070
     0
1070
   271
1070
     2
1070
   141
1040
0.0
1070
     4
1000
mm
1070
   171
1070
     1
1070
   170
1070
     1
1002
}
  0
DIMENSION
  5
15B7
  8
DIMENSION
  2
*D23
 10
9.410383
 20
0.031023
 30
0.0
 11
9.410383
 21
3.384812
 31
0.0
 70
   128
  1
 <>\P[]
 13
8.627232
 23
6.553023
 33
0.0
 14
8.627232
 24
0.031023
 34
0.0
 50
90.0
1001
ACAD
1000
DSTYLE
1002
{
1070
   288
1070
     1
1070
   140
1040
0.125
1070
    73
1070
     0
1070
     3
1000
"
1070
   287
1070
     0
1070
   271
1070
     2
1070
   141
1040
0.0
1070
     4
1000
mm
1070
   171
1070
     1
1070
   170
1070
     1
1002
}
  0
DIMENSION
  5
15C5
  8
DIMENSION
  2
*D24
 10
10.069451
 20
-0.005477
 30
0.0
 11
10.069451
 21
3.364241
 31
0.0
 70
   128
  1
 <>\P[]
 13
8.204232
 23
6.589523
 33
0.0
 14
7.831132
 24
-0.005477
 34
0.0
 50
90.0
1001
ACAD
1000
DSTYLE
1002
{
1070
   288
1070
     1
1070
   140
1040
0.125
1070
    73
1070
     0
1070
     3
1000
"
1070
   287
1070
     0
1070
   271
1070
     2
1070
   141
1040
0.0
1070
     4
1000
mm
1070
   171
1070
     1
1070
   170
1070
     1
1002
}
  0
DIMENSION
  5
15F9
  8
DIMENSION
  2
*D25
 10
11.452634
 20
-1.168033
 30
0.0
 11
12.517983
 21
-1.168033
 31
0.0
 70
   128
  1
 <>\P[]
 13
13.462634
 23
-0.125477
 33
0.0
 14
11.452634
 24
-0.255477
 34
0.0
1001
ACAD
1000
DSTYLE
1002
{
1070
   288
1070
     1
1070
   140
1040
0.125
1070
    73
1070
     0
1070
     3
1000
"
1070
   287
1070
     0
1070
   271
1070
     2
1070
   141
1040
0.0
1070
     4
1000
mm
1070
   171
1070
     1
1070
   170
1070
     1
1002
}
  0
DIMENSION
  5
1607
  8
DIMENSION
  2
*D26
 10
11.347634
 20
-2.08823
 30
0.0
 11
12.502627
 21
-2.08823
 31
0.0
 70
   128
  1
 <>\P[]
 13
13.462634
 23
-0.125477
 33
0.0
 14
11.347634
 24
-0.120477
 34
0.0
1001
ACAD
1000
DSTYLE
1002
{
1070
   288
1070
     1
1070
   140
1040
0.125
1070
    73
1070
     0
1070
     3
1000
"
1070
   287
1070
     0
1070
   271
1070
     2
1070
   141
1040
0.0
1070
     4
1000
mm
1070
   171
1070
     1
1070
   170
1070
     1
1002
}
  0
DIMENSION
  5
162D
  8
DIMENSION
  2
*D27
 10
13.322634
 20
7.751678
 30
0.0
 11
12.364428
 21
7.751678
 31
0.0
 70
   128
  1
 <>\P[]
 13
11.347634
 23
6.704523
 33
0.0
 14
13.322634
 24
6.209523
 34
0.0
1001
ACAD
1000
DSTYLE
1002
{
1070
   288
1070
     1
1070
   140
1040
0.125
1070
    73
1070
     0
1070
     3
1000
"
1070
   287
1070
     0
1070
   271
1070
     2
1070
   141
1040
0.0
1070
     4
1000
mm
1070
   171
1070
     1
1070
   170
1070
     1
1002
}
  0
DIMENSION
  5
1647
  8
DIMENSION
  2
*D28
 10
5.03627
 20
0.283893
 30
0.0
 11
5.03627
 21
3.2211
 31
0.0
 70
   128
  1
 <>\P[]
 13
6.092332
 23
6.209523
 33
0.0
 14
5.951917
 24
0.283893
 34
0.0
 50
90.0
1001
ACAD
1000
DSTYLE
1002
{
1070
   288
1070
     1
1070
   140
1040
0.125
1070
    73
1070
     0
1070
     3
1000
"
1070
   287
1070
     0
1070
   271
1070
     2
1070
   141
1040
0.0
1070
     4
1000
mm
1070
   171
1070
     1
1070
   170
1070
     1
1002
}
  0
DIMENSION
  5
1655
  8
DIMENSION
  2
*D29
 10
4.33796
 20
0.193023
 30
0.0
 11
4.33796
 21
3.2211
 31
0.0
 70
   128
  1
 <>\P[]
 13
6.626232
 23
6.391023
 33
0.0
 14
6.260232
 24
0.193023
 34
0.0
 50
90.0
1001
ACAD
1000
DSTYLE
1002
{
1070
   288
1070
     1
1070
   140
1040
0.125
1070
    73
1070
     0
1070
     3
1000
"
1070
   287
1070
     0
1070
   271
1070
     2
1070
   141
1040
0.0
1070
     4
1000
mm
1070
   171
1070
     1
1070
   170
1070
     1
1002
}
  0
DIMENSION
  5
1663
  8
DIMENSION
  2
*D30
 10
3.686204
 20
-0.255477
 30
0.0
 11
3.686204
 21
3.244348
 31
0.0
 70
   128
  1
 <>\P[]
 13
5.793432
 23
6.839523
 33
0.0
 14
5.793432
 24
-0.255477
 34
0.0
 50
90.0
1001
ACAD
1000
DSTYLE
1002
{
1070
   288
1070
     1
1070
   140
1040
0.125
1070
    73
1070
     0
1070
     3
1000
"
1070
   287
1070
     0
1070
   271
1070
     2
1070
   141
1040
0.0
1070
     4
1000
mm
1070
   171
1070
     1
1070
   170
1070
     1
1002
}
  0
POLYLINE
  8
0
  5
17CC
  66
     1
 10
0.000000
 20
0.000000
 30
0.000000
  70
     8
  0
VERTEX
  8
0
  5
17CD
 10
8.13173
 20
6.39102
 30
0.000000
  70
    32
  0
VERTEX
  8
0
  5
17CE
 10
8.14657
 20
5.81218
 30
0.000000
  70
    32
  0
VERTEX
  8
0
  5
17CF
 10
7.96657
 20
5.81218
 30
0.000000
  70
    32
  0
SEQEND
  8
0
  5
17D0
  0
TEXT
  8
0
  40
0.125
  5
17D1
  72
0
  71
0
 10
7.62657
 20
5.59093
 30
0.000000
  1
M4 thread
  0
DIMENSION
  5
1695
  8
DIMENSION
  2
*D31
 10
8.205132
 20
0.118623
 30
0.0
 11
6.843998
 21
0.820423
 31
0.0
 70
   132
  1
 <>\P[]
 15
8.033767
 25
0.308673
 35
0.0
 40
0.0
1001
ACAD
1000
DSTYLE
1002
{
1070
   288
1070
     1
1070
   140
1040
0.125
1070
    73
1070
     0
1070
     3
1000
"
1070
   287
1070
     0
1070
   271
1070
     2
1070
   141
1040
0.0
1070
     4
1000
mm
1070
   171
1070
     1
1070
   170
1070
     1
1002
}
  0
DIMENSION
  5
16A7
  8
DIMENSION
  2
*D32
 10
8.583064
 20
0.096208
 30
0.0
 11
10.200105
 21
-1.230779
 31
0.0
 70
   131
  1
 <>\P[]
 15
8.6714
 25
-0.034163
 35
0.0
 40
0.0
1001
ACAD
1000
DSTYLE
1002
{
1070
   288
1070
     1
1070
   140
1040
0.125
1070
    73
1070
     0
1070
     3
1000
"
1070
   287
1070
     0
1070
   271
1070
     2
1070
   141
1040
0.0
1070
     4
1000
mm
1070
   171
1070
     1
1070
   170
1070
     1
1002
}
  0
TEXT
  5
16B0
  8
TEXT
 10
4.805516
 20
-5.961355
 30
0.0
 40
0.2
  1
VIEW OF BOX (LID REMOVED)
  0
LINE
  5
16B1
  8
TEXT
 10
4.701323
 20
-6.039404
 30
0.0
 11
9.72866
 21
-6.039404
 31
0.0
  0
TEXT
  5
16B2
  8
TEXT
 10
18.668973
 20
-3.064297
 30
0.0
 40
0.2
  1
VIEW OF LID (INSIDE)
  0
LINE
  5
16B4
  8
TEXT
 10
22.378473
 20
-3.140687
 30
0.0
 11
18.573367
 21
-3.140687
 31
0.0
  0
VIEWPORT
  5
86F
 67
     1
  8
0
 10
213.960567
 20
389.632508
 30
0.0
 40
559.308628
 41
320.602562
 68
     1
 69
     1
1001
ACAD
1000
MVIEW
1002
{
1070
    16
1010
0.0
1020
0.0
1030
0.0
1010
0.0
1020
0.0
1030
1.0
1040
0.0
1040
320.602562
1040
213.960567
1040
389.632508
1040
50.0
1040
0.0
1040
0.0
1070
     0
1070
   100
1070
     1
1070
     1
1070
     0
1070
     0
1070
     0
1070
     0
1040
0.0
1040
0.0
1040
0.0
1040
0.5
1040
0.5
1040
0.5
1040
0.5
1070
     0
1002
{
1002
}
1002
}
  0
POLYLINE
  5
10B8
 67
     1
  8
0
 62
     5
 66
     1
 10
0.0
 20
0.0
 30
0.0
 70
     1
  0
VERTEX
  5
16D6
 67
     1
  8
0
 62
     5
 10
409.219758
 20
231.692288
 30
0.0
  0
VERTEX
  5
16D7
 67
     1
  8
0
 62
     5
 10
409.219758
 20
526.965337
 30
0.0
  0
VERTEX
  5
16D8
 67
     1
  8
0
 62
     5
 10
18.697338
 20
526.965337
 30
0.0
  0
VERTEX
  5
16D9
 67
     1
  8
0
 62
     5
 10
18.697338
 20
231.692288
 30
0.0
  0
SEQEND
  5
16DA
 67
     1
  8
0
 62
     5
  0
LINE
  5
10B9
 67
     1
  8
0
 62
     5
 10
225.191454
 20
286.488785
 30
0.0
 11
409.219758
 21
286.488785
 31
0.0
  0
INSERT
  5
10BA
 67
     1
  8
DIM
 62
     6
  2
*X0
 10
4.409932
 20
217.404882
 30
0.0
 41
0.749995
 42
0.749995
 43
0.749995
1001
ACAD
1000
HATCH
1002
{
1070
    19
1000
ANSI31
1040
8.096197
1040
6.283185
1000
ASC_BOUNDS
1070
     4
1070
     1
1070
     3
1005
10BC
1005
10C5
1005
10BB
1070
     1
1070
    13
1005
10D0
1005
10C6
1005
10CA
1005
10C8
1005
10CB
1005
10CC
1005
10BB
1005
10CD
1005
10C4
1005
10D6
1005
10C3
1005
10C9
1005
10C7
1070
     1
1070
     3
1005
10C1
1005
10D1
1005
10CF
1070
     1
1070
    13
1005
10BE
1005
10BF
1005
10C0
1005
10D8
1005
10C1
1005
10CE
1005
10D4
1005
10D5
1005
10D2
1005
10D7
1005
10D3
1005
10BD
1005
10E2
1000
ASC_SEEDPOINT
1011
258.944194
1021
-1.447063E+222
1031
-1.213884E+229
1021
247.683175
1031
0.0
1002
}
  0
LINE
  5
10BB
 67
     1
  8
DIM
 62
     6
 10
255.12004
 20
238.976074
 30
0.0
 11
263.571791
 21
256.381392
 31
0.0
1001
ACAD
1000
ASC_BOUNDS
1002
{
1070
    19
1005
10BA
1005
0
1005
0
1005
10BA
1002
}
  0
LINE
  5
10BC
 67
     1
  8
DIM
 62
     6
 10
263.571791
 20
256.381392
 30
0.0
 11
258.672329
 21
256.381392
 31
0.0
1001
ACAD
1000
ASC_BOUNDS
1002
{
1070
    19
1005
10BA
1002
}
  0
LINE
  5
10BD
 67
     1
  8
DIM
 62
     6
 10
263.834646
 20
262.199896
 30
0.0
 11
258.672329
 21
262.199896
 31
0.0
1001
ACAD
1000
ASC_BOUNDS
1002
{
1070
    19
1005
10BA
1002
}
  0
LINE
  5
10BE
 67
     1
  8
DIM
 62
     6
 10
255.12004
 20
279.605214
 30
0.0
 11
263.834646
 21
279.605214
 31
0.0
1001
ACAD
1000
ASC_BOUNDS
1002
{
1070
    19
1005
10BA
1002
}
  0
LINE
  5
10BF
 67
     1
  8
DIM
 62
     6
 10
251.56775
 20
274.121472
 30
0.0
 11
255.12004
 21
279.605214
 31
0.0
1001
ACAD
1000
ASC_BOUNDS
1002
{
1070
    19
1005
10BA
1002
}
  0
LINE
  5
10C0
 67
     1
  8
DIM
 62
     6
 10
251.56775
 20
274.121472
 30
0.0
 11
251.56775
 21
279.605214
 31
0.0
1001
ACAD
1000
ASC_BOUNDS
1002
{
1070
    19
1005
10BA
1002
}
  0
LINE
  5
10C1
 67
     1
  8
DIM
 62
     6
 10
241.102573
 20
279.605214
 30
0.0
 11
232.650821
 21
262.199896
 31
0.0
1001
ACAD
1000
ASC_BOUNDS
1002
{
1070
    19
1005
10BA
1005
0
1005
0
1005
10BA
1002
}
  0
LINE
  5
10C2
 67
     1
  8
0
 62
     5
 10
225.191454
 20
231.692288
 30
0.0
 11
225.191454
 21
286.488785
 31
0.0
  0
LINE
  5
10C3
 67
     1
  8
DIM
 62
     6
 10
244.654862
 20
246.076066
 30
0.0
 11
244.654862
 21
256.381392
 31
0.0
1001
ACAD
1000
ASC_BOUNDS
1002
{
1070
    19
1005
10BA
1002
}
  0
LINE
  5
10C4
 67
     1
  8
DIM
 62
     6
 10
251.56775
 20
256.381392
 30
0.0
 11
251.56775
 21
246.076066
 31
0.0
1001
ACAD
1000
ASC_BOUNDS
1002
{
1070
    19
1005
10BA
1002
}
  0
LINE
  5
10C5
 67
     1
  8
DIM
 62
     6
 10
258.672329
 20
246.076066
 30
0.0
 11
258.672329
 21
256.381392
 31
0.0
1001
ACAD
1000
ASC_BOUNDS
1002
{
1070
    19
1005
10BA
1002
}
  0
LINE
  5
10C6
 67
     1
  8
DIM
 62
     6
 10
232.650821
 20
238.976074
 30
0.0
 11
232.650821
 21
256.381392
 31
0.0
1001
ACAD
1000
ASC_BOUNDS
1002
{
1070
    19
1005
10BA
1002
}
  0
LINE
  5
10C7
 67
     1
  8
DIM
 62
     6
 10
237.550283
 20
256.381392
 30
0.0
 11
237.550283
 21
246.076066
 31
0.0
1001
ACAD
1000
ASC_BOUNDS
1002
{
1070
    19
1005
10BA
1002
}
  0
LINE
  5
10C8
 67
     1
  8
DIM
 62
     6
 10
244.654862
 20
244.459816
 30
0.0
 11
241.102573
 21
238.976074
 31
0.0
1001
ACAD
1000
ASC_BOUNDS
1002
{
1070
    19
1005
10BA
1002
}
  0
LINE
  5
10C9
 67
     1
  8
DIM
 62
     6
 10
237.550283
 20
246.076066
 30
0.0
 11
244.654862
 21
246.076066
 31
0.0
1001
ACAD
1000
ASC_BOUNDS
1002
{
1070
    19
1005
10BA
1002
}
  0
LINE
  5
10CA
 67
     1
  8
DIM
 62
     6
 10
241.102573
 20
238.976074
 30
0.0
 11
232.650821
 21
238.976074
 31
0.0
1001
ACAD
1000
ASC_BOUNDS
1002
{
1070
    19
1005
10BA
1002
}
  0
LINE
  5
10CB
 67
     1
  8
DIM
 62
     6
 10
244.654862
 20
244.459816
 30
0.0
 11
244.654862
 21
238.976074
 31
0.0
1001
ACAD
1000
ASC_BOUNDS
1002
{
1070
    19
1005
10BA
1002
}
  0
LINE
  5
10CC
 67
     1
  8
DIM
 62
     6
 10
244.654862
 20
238.976074
 30
0.0
 11
255.12004
 21
238.976074
 31
0.0
1001
ACAD
1000
ASC_BOUNDS
1002
{
1070
    19
1005
10BA
1002
}
  0
LINE
  5
10CD
 67
     1
  8
DIM
 62
     6
 10
251.56775
 20
246.076066
 30
0.0
 11
258.672329
 21
246.076066
 31
0.0
1001
ACAD
1000
ASC_BOUNDS
1002
{
1070
    19
1005
10BA
1002
}
  0
LINE
  5
10CE
 67
     1
  8
DIM
 62
     6
 10
237.550283
 20
272.289721
 30
0.0
 11
244.654862
 21
272.289721
 31
0.0
1001
ACAD
1000
ASC_BOUNDS
1002
{
1070
    19
1005
10BA
1002
}
  0
LINE
  5
10CF
 67
     1
  8
DIM
 62
     6
 10
237.550283
 20
272.289721
 30
0.0
 11
237.550283
 21
262.199896
 31
0.0
1001
ACAD
1000
ASC_BOUNDS
1002
{
1070
    19
1005
10BA
1002
}
  0
LINE
  5
10D0
 67
     1
  8
DIM
 62
     6
 10
237.550283
 20
256.381392
 30
0.0
 11
232.650821
 21
256.381392
 31
0.0
1001
ACAD
1000
ASC_BOUNDS
1002
{
1070
    19
1005
10BA
1002
}
  0
LINE
  5
10D1
 67
     1
  8
DIM
 62
     6
 10
237.550283
 20
262.199896
 30
0.0
 11
232.650821
 21
262.199896
 31
0.0
1001
ACAD
1000
ASC_BOUNDS
1002
{
1070
    19
1005
10BA
1002
}
  0
LINE
  5
10D2
 67
     1
  8
DIM
 62
     6
 10
251.56775
 20
272.289721
 30
0.0
 11
251.56775
 21
262.199896
 31
0.0
1001
ACAD
1000
ASC_BOUNDS
1002
{
1070
    19
1005
10BA
1002
}
  0
LINE
  5
10D3
 67
     1
  8
DIM
 62
     6
 10
258.672329
 20
262.199896
 30
0.0
 11
258.672329
 21
272.289721
 31
0.0
1001
ACAD
1000
ASC_BOUNDS
1002
{
1070
    19
1005
10BA
1002
}
  0
LINE
  5
10D4
 67
     1
  8
DIM
 62
     6
 10
244.654862
 20
262.199896
 30
0.0
 11
244.654862
 21
272.289721
 31
0.0
1001
ACAD
1000
ASC_BOUNDS
1002
{
1070
    19
1005
10BA
1002
}
  0
LINE
  5
10D5
 67
     1
  8
DIM
 62
     6
 10
251.56775
 20
262.199896
 30
0.0
 11
244.654862
 21
262.199896
 31
0.0
1001
ACAD
1000
ASC_BOUNDS
1002
{
1070
    19
1005
10BA
1002
}
  0
LINE
  5
10D6
 67
     1
  8
DIM
 62
     6
 10
251.56775
 20
256.381392
 30
0.0
 11
244.654862
 21
256.381392
 31
0.0
1001
ACAD
1000
ASC_BOUNDS
1002
{
1070
    19
1005
10BA
1002
}
  0
LINE
  5
10D7
 67
     1
  8
DIM
 62
     6
 10
251.56775
 20
272.289721
 30
0.0
 11
258.672329
 21
272.289721
 31
0.0
1001
ACAD
1000
ASC_BOUNDS
1002
{
1070
    19
1005
10BA
1002
}
  0
LINE
  5
10D8
 67
     1
  8
DIM
 62
     6
 10
251.56775
 20
279.605214
 30
0.0
 11
241.102573
 21
279.605214
 31
0.0
1001
ACAD
1000
ASC_BOUNDS
1002
{
1070
    19
1005
10BA
1002
}
  0
LINE
  5
10D9
 67
     1
  8
DIM
 62
     6
 10
355.895391
 20
279.236882
 30
0.0
 11
355.895391
 21
273.555879
 31
0.0
  0
LINE
  5
10DA
 67
     1
  8
DIM
 62
     6
 10
355.895391
 20
279.236882
 30
0.0
 11
351.771526
 21
273.526443
 31
0.0
  0
LINE
  5
10DB
 67
     1
  8
DIM
 62
     6
 10
333.453684
 20
279.236882
 30
0.0
 11
329.329819
 21
273.526443
 31
0.0
  0
LINE
  5
10DC
 67
     1
  8
DIM
 62
     6
 10
327.827358
 20
279.236882
 30
0.0
 11
327.827358
 21
273.555879
 31
0.0
  0
LINE
  5
10DD
 67
     1
  8
DIM
 62
     6
 10
327.827358
 20
279.236882
 30
0.0
 11
323.703493
 21
273.526443
 31
0.0
  0
LINE
  5
10DE
 67
     1
  8
DIM
 62
     6
 10
323.703493
 20
279.207447
 30
0.0
 11
323.703493
 21
273.526443
 31
0.0
  0
LINE
  5
10DF
 67
     1
  8
DIM
 62
     6
 10
333.453684
 20
279.236882
 30
0.0
 11
333.453684
 21
273.555879
 31
0.0
  0
LINE
  5
10E0
 67
     1
  8
DIM
 62
     6
 10
323.703493
 20
279.207447
 30
0.0
 11
319.579627
 21
273.497008
 31
0.0
  0
LINE
  5
10E1
 67
     1
  8
DIM
 62
     6
 10
280.274522
 20
279.174508
 30
0.0
 11
276.150656
 21
273.464069
 31
0.0
  0
LINE
  5
10E2
 67
     1
  8
DIM
 62
     6
 10
263.834646
 20
279.605214
 30
0.0
 11
263.834646
 21
262.199896
 31
0.0
1001
ACAD
1000
ASC_BOUNDS
1002
{
1070
    19
1005
10BA
1002
}
  0
LINE
  5
10E3
 67
     1
  8
DIM
 62
     6
 10
280.274522
 20
279.174508
 30
0.0
 11
280.274522
 21
273.493504
 31
0.0
  0
TEXT
  5
10E4
 67
     1
  8
DIM
 62
     6
 10
269.567006
 20
273.476447
 30
0.0
 40
5.714962
  1
H MMOND
  7
STYLE1
  0
TEXT
  5
10E5
 67
     1
  8
DIM
 62
     6
 10
323.440243
 20
273.548569
 30
0.0
 40
5.714962
  1
  NUF CTURING
  7
STYLE1
  0
TEXT
  5
10E6
 67
     1
  8
DIM
 62
     7
 10
264.158078
 20
241.279374
 30
0.0
 40
3.238479
  1
CANADA - PH (519) 886 7170 - FAX (519) 886 8311
  7
STYLE1
  0
TEXT
  5
10E7
 67
     1
  8
DIM
 62
     7
 10
265.137946
 20
235.567536
 30
0.0
 40
3.238479
  1
U.S.A.  - PH (716) 631 5700 - FAX (716) 631 1156
  7
STYLE1
  0
LINE
  5
10E8
 67
     1
  8
DIM
 62
     6
 10
280.274522
 20
275.656996
 30
0.0
 11
277.734306
 21
275.656996
 31
0.0
  0
LINE
  5
10E9
 67
     1
  8
DIM
 62
     6
 10
333.453684
 20
275.71937
 30
0.0
 11
330.913468
 21
275.71937
 31
0.0
  0
LINE
  5
10EA
 67
     1
  8
DIM
 62
     6
 10
355.895391
 20
275.71937
 30
0.0
 11
353.355175
 21
275.71937
 31
0.0
  0
LINE
  5
10EC
 67
     1
  8
0
 62
     5
 10
18.697338
 20
521.933165
 30
0.0
 11
116.139632
 21
521.933165
 31
0.0
  0
TEXT
  5
10ED
 67
     1
  8
TEXT
 10
58.990922
 20
523.249259
 30
0.0
 40
2.399984
  1
NOTES
  7
STYLE1
 72
     4
 11
64.70517
 21
524.449251
 31
0.0
  0
LINE
  5
10EE
 67
     1
  8
0
 62
     5
 10
116.139632
 20
526.965337
 30
0.0
 11
116.139632
 21
511.462941
 31
0.0
  0
TEXT
  5
10EF
 67
     1
  8
DIM
  6
CONTINUOUS
 62
     2
 10
1236.053736
 20
289.821703
 30
0.0
 40
5.55625
  1
  
  0
TEXT
  5
10F0
 67
     1
  8
DIM
  6
CONTINUOUS
 62
     2
 10
1237.635544
 20
292.043988
 30
0.0
 40
5.55625
  1
 
  0
TEXT
  5
10F1
 67
     1
  8
DIM
 10
280.296794
 20
255.643008
 30
0.0
 40
9.6
  1
R110-083-000
  7
STYLE1
  0
VIEWPORT
  5
1160
 67
     1
  8
DEFPOINTS
 10
214.321062
 20
383.707917
 30
0.0
 40
388.807137
 41
255.437722
 68
     2
 69
     2
1001
ACAD
1000
MVIEW
1002
{
1070
    16
1010
0.0
1020
0.0
1030
0.0
1010
0.0
1020
0.0
1030
1.0
1040
0.0
1040
18.298464
1040
12.111683
1040
2.940285
1040
50.0
1040
0.0
1040
0.0
1070
     0
1070
   100
1070
     1
1070
     1
1070
     0
1070
     0
1070
     0
1070
     0
1040
0.0
1040
0.0
1040
0.0
1040
0.5
1040
0.5
1040
0.5
1040
0.5
1070
     0
1002
{
1002
}
1002
}
  0
TEXT
  5
16B6
 67
     1
  8
TEXT
 10
21.499046
 20
516.864444
 30
0.0
 40
2.4
  1
MATERIAL - DIECAST ALUMINUM ALLOY
  0
TEXT
  5
16B7
 67
     1
  8
TEXT
 10
21.499046
 20
512.864444
 30
0.0
 40
2.4
  1
        - FOUR M9 CAPTIVE SCREWS
  0
TEXT
  5
16B8
 67
     1
  8
TEXT
 10
21.499046
 20
504.864444
 30
0.0
 40
2.4
  1
POWDER COATED - Col. RAL 7032
  0
TEXT
  5
16B9
 67
     1
  8
TEXT
 10
21.499046
 20
500.864444
 30
0.0
 40
2.4
  1
POLYURETHANE GASKET
  0
TEXT
  5
16BA
 67
     1
  8
TEXT
 10
21.499046
 20
496.864444
 30
0.0
 40
2.4
  1
-40%%DC TO +80%%DC TEMP. RANGE
  0
ENDSEC
  0
EOF
