  0
SECTION
  2
HEADER
  9
$ACADVER
  1
AC1009
  9
$INSBASE
 10
0.0
 20
0.0
 30
0.0
  9
$EXTMIN
 10
-2.123019
 20
-3.057393
 30
0.0
  9
$EXTMAX
 10
19.662907
 20
13.353398
 30
0.0
  9
$LIMMIN
 10
0.0
 20
0.0
  9
$LIMMAX
 10
12.0
 20
9.0
  9
$ORTHOMODE
 70
     1
  9
$REGENMODE
 70
     1
  9
$FILLMODE
 70
     1
  9
$QTEXTMODE
 70
     0
  9
$MIRRTEXT
 70
     1
  9
$DRAGMODE
 70
     2
  9
$LTSCALE
 40
7.0
  9
$OSMODE
 70
    55
  9
$ATTMODE
 70
     1
  9
$TEXTSIZE
 40
2.4
  9
$TRACEWID
 40
0.05
  9
$TEXTSTYLE
  7
STANDARD
  9
$CLAYER
  8
TEXT
  9
$CELTYPE
  6
BYLAYER
  9
$CECOLOR
 62
   256
  9
$DIMSCALE
 40
0.0
  9
$DIMASZ
 40
0.18
  9
$DIMEXO
 40
0.0625
  9
$DIMDLI
 40
0.38
  9
$DIMRND
 40
0.0
  9
$DIMDLE
 40
0.0
  9
$DIMEXE
 40
0.18
  9
$DIMTP
 40
0.0
  9
$DIMTM
 40
0.0
  9
$DIMTXT
 40
0.125
  9
$DIMCEN
 40
0.0
  9
$DIMTSZ
 40
0.0
  9
$DIMTOL
 70
     0
  9
$DIMLIM
 70
     0
  9
$DIMTIH
 70
     0
  9
$DIMTOH
 70
     1
  9
$DIMSE1
 70
     0
  9
$DIMSE2
 70
     0
  9
$DIMTAD
 70
     0
  9
$DIMZIN
 70
     0
  9
$DIMBLK
  1

  9
$DIMASO
 70
     1
  9
$DIMSHO
 70
     1
  9
$DIMPOST
  1
"
  9
$DIMAPOST
  1
mm
  9
$DIMALT
 70
     1
  9
$DIMALTD
 70
     1
  9
$DIMALTF
 40
25.4
  9
$DIMLFAC
 40
1.0
  9
$DIMTOFL
 70
     0
  9
$DIMTVP
 40
0.0
  9
$DIMTIX
 70
     0
  9
$DIMSOXD
 70
     0
  9
$DIMSAH
 70
     0
  9
$DIMBLK1
  1

  9
$DIMBLK2
  1

  9
$DIMSTYLE
  2
STANDARD
  9
$DIMCLRD
 70
     0
  9
$DIMCLRE
 70
     0
  9
$DIMCLRT
 70
     0
  9
$DIMTFAC
 40
1.0
  9
$DIMGAP
 40
0.09
  9
$LUNITS
 70
     2
  9
$LUPREC
 70
     4
  9
$SKETCHINC
 40
0.1
  9
$FILLETRAD
 40
0.11811
  9
$AUNITS
 70
     0
  9
$AUPREC
 70
     0
  9
$MENU
  1
acad
  9
$ELEVATION
 40
0.0
  9
$PELEVATION
 40
0.0
  9
$THICKNESS
 40
0.0
  9
$LIMCHECK
 70
     0
  9
$BLIPMODE
 70
     0
  9
$CHAMFERA
 40
0.1
  9
$CHAMFERB
 40
0.1
  9
$SKPOLY
 70
     0
  9
$TDCREATE
 40
2451306.443503
  9
$TDUPDATE
 40
2451367.637338
  9
$TDINDWG
 40
0.146841
  9
$TDUSRTIMER
 40
0.146841
  9
$USRTIMER
 70
     1
  9
$ANGBASE
 50
0.0
  9
$ANGDIR
 70
     0
  9
$PDMODE
 70
     0
  9
$PDSIZE
 40
0.0
  9
$PLINEWID
 40
0.0
  9
$COORDS
 70
     1
  9
$SPLFRAME
 70
     0
  9
$SPLINETYPE
 70
     6
  9
$SPLINESEGS
 70
     8
  9
$ATTDIA
 70
     0
  9
$ATTREQ
 70
     1
  9
$HANDLING
 70
     1
  9
$HANDSEED
  5
1772
  9
$SURFTAB1
 70
     6
  9
$SURFTAB2
 70
     6
  9
$SURFTYPE
 70
     6
  9
$SURFU
 70
     6
  9
$SURFV
 70
     6
  9
$UCSNAME
  2

  9
$UCSORG
 10
0.0
 20
0.0
 30
0.0
  9
$UCSXDIR
 10
1.0
 20
0.0
 30
0.0
  9
$UCSYDIR
 10
0.0
 20
1.0
 30
0.0
  9
$PUCSNAME
  2

  9
$PUCSORG
 10
0.0
 20
0.0
 30
0.0
  9
$PUCSXDIR
 10
1.0
 20
0.0
 30
0.0
  9
$PUCSYDIR
 10
0.0
 20
1.0
 30
0.0
  9
$USERI1
 70
     0
  9
$USERI2
 70
     0
  9
$USERI3
 70
     0
  9
$USERI4
 70
     0
  9
$USERI5
 70
     0
  9
$USERR1
 40
0.0
  9
$USERR2
 40
0.0
  9
$USERR3
 40
0.0
  9
$USERR4
 40
0.0
  9
$USERR5
 40
0.0
  9
$WORLDVIEW
 70
     1
  9
$SHADEDGE
 70
     3
  9
$SHADEDIF
 70
    70
  9
$TILEMODE
 70
     0
  9
$MAXACTVP
 70
    48
  9
$PLIMCHECK
 70
     0
  9
$PEXTMIN
 10
18.697338
 20
231.692288
 30
0.0
  9
$PEXTMAX
 10
409.219758
 20
526.965337
 30
0.0
  9
$PLIMMIN
 10
0.0
 20
0.0
  9
$PLIMMAX
 10
12.0
 20
9.0
  9
$UNITMODE
 70
     0
  9
$VISRETAIN
 70
     1
  9
$PLINEGEN
 70
     0
  9
$PSLTSCALE
 70
     1
  0
ENDSEC
  0
SECTION
  2
TABLES
  0
TABLE
  2
VPORT
 70
     1
  0
VPORT
  2
*ACTIVE
 70
     0
 10
0.0
 20
0.0
 11
1.0
 21
1.0
 12
8.769947
 22
5.147672
 13
0.0
 23
0.0
 14
0.5
 24
0.5
 15
0.5
 25
0.5
 16
0.0
 26
0.0
 36
1.0
 17
0.0
 27
0.0
 37
0.0
 40
16.672734
 41
1.864362
 42
50.0
 43
0.0
 44
0.0
 50
0.0
 51
0.0
 71
     0
 72
   100
 73
     1
 74
     1
 75
     0
 76
     0
 77
     0
 78
     0
  0
ENDTAB
  0
TABLE
  2
LTYPE
 70
     2
  0
LTYPE
  2
CONTINUOUS
 70
     0
  3
Solid line
 72
    65
 73
     0
 40
0.0
  0
LTYPE
  2
HIDDEN
 70
     0
  3
__ __ __ __ __ __ __ __ __ __ __ __ __ __ __ __
 72
    65
 73
     2
 40
0.375
 49
0.25
 49
-0.125
  0
ENDTAB
  0
TABLE
  2
LAYER
 70
     6
  0
LAYER
  2
0
 70
     0
 62
     7
  6
CONTINUOUS
  0
LAYER
  2
DIM
 70
     0
 62
     1
  6
CONTINUOUS
  0
LAYER
  2
TEXT
 70
     0
 62
     7
  6
CONTINUOUS
  0
LAYER
  2
HIDDEN
 70
     0
 62
     3
  6
HIDDEN
  0
LAYER
  2
DIMENSION
 70
     0
 62
     5
  6
CONTINUOUS
  0
LAYER
  2
DEFPOINTS
 70
     0
 62
     7
  6
CONTINUOUS
  0
ENDTAB
  0
TABLE
  2
STYLE
 70
     2
  0
STYLE
  2
STANDARD
 70
     0
 40
0.0
 41
1.0
 50
0.0
 71
     0
 42
2.4
  3
txt
  4

  0
STYLE
  2
STYLE1
 70
     0
 40
0.0
 41
1.0
 50
0.0
 71
     0
 42
4.8
  3
C:\R13\com\fonts\romans.shx
  4

  0
ENDTAB
  0
TABLE
  2
VIEW
 70
     0
  0
ENDTAB
  0
TABLE
  2
UCS
 70
     0
  0
ENDTAB
  0
TABLE
  2
APPID
 70
     1
  0
APPID
  2
ACAD
 70
     0
  0
ENDTAB
  0
TABLE
  2
DIMSTYLE
 70
     1
  0
DIMSTYLE
  2
STANDARD
 70
     0
  3

  4

  5

  6

  7

 40
1.0
 41
0.18
 42
0.0625
 43
0.38
 44
0.18
 45
0.0
 46
0.0
 47
0.0
 48
0.0
140
0.18
141
0.09
142
0.0
143
25.4
144
1.0
145
0.0
146
1.0
147
0.09
 71
     0
 72
     0
 73
     1
 74
     1
 75
     0
 76
     0
 77
     0
 78
     0
170
     0
171
     2
172
     0
173
     0
174
     0
175
     0
176
     0
177
     0
178
     0
  0
ENDTAB
  0
ENDSEC
  0
SECTION
  2
BLOCKS
  0
BLOCK
  8
0
  2
$MODEL_SPACE
 70
     0
 10
0.0
 20
0.0
 30
0.0
  3
$MODEL_SPACE
  1

  0
ENDBLK
  5
1A
  8
0
  0
BLOCK
 67
     1
  8
0
  2
$PAPER_SPACE
 70
     0
 10
0.0
 20
0.0
 30
0.0
  3
$PAPER_SPACE
  1

  0
ENDBLK
  5
17
 67
     1
  8
0
  0
BLOCK
  8
0
  2
*X0
 70
     1
 10
0.0
 20
0.0
 30
0.0
  3
*X0
  1

  0
LINE
  5
871
  8
0
 62
     0
 10
339.743746
 20
40.008835
 30
0.0
 11
339.018768
 21
40.733812
 31
0.0
  0
LINE
  5
872
  8
0
 62
     0
 10
310.855854
 20
68.896726
 30
0.0
 11
309.455717
 21
70.296863
 31
0.0
  0
LINE
  5
873
  8
0
 62
     0
 10
329.545934
 20
50.206647
 30
0.0
 11
327.783558
 21
51.969023
 31
0.0
  0
LINE
  5
874
  8
0
 62
     0
 10
339.11999
 20
38.724287
 30
0.0
 11
339.018768
 21
38.825508
 31
0.0
  0
LINE
  5
875
  8
0
 62
     0
 10
310.855854
 20
66.988422
 30
0.0
 11
308.831961
 21
69.012315
 31
0.0
  0
LINE
  5
876
  8
0
 62
     0
 10
329.545934
 20
48.298342
 30
0.0
 11
325.875253
 21
51.969023
 31
0.0
  0
LINE
  5
877
  8
0
 62
     0
 10
338.496233
 20
37.439739
 30
0.0
 11
337.707474
 21
38.228498
 31
0.0
  0
LINE
  5
878
  8
0
 62
     0
 10
310.855854
 20
65.080118
 30
0.0
 11
308.208204
 21
67.727768
 31
0.0
  0
LINE
  5
879
  8
0
 62
     0
 10
329.545934
 20
46.390038
 30
0.0
 11
323.966949
 21
51.969023
 31
0.0
  0
LINE
  5
87A
  8
0
 62
     0
 10
337.872477
 20
36.155191
 30
0.0
 11
335.799169
 21
38.228498
 31
0.0
  0
LINE
  5
87B
  8
0
 62
     0
 10
310.855854
 20
63.171813
 30
0.0
 11
307.584448
 21
66.44322
 31
0.0
  0
LINE
  5
87C
  8
0
 62
     0
 10
329.545934
 20
44.481733
 30
0.0
 11
322.058645
 21
51.969023
 31
0.0
  0
LINE
  5
87D
  8
0
 62
     0
 10
337.24872
 20
34.870643
 30
0.0
 11
333.890865
 21
38.228498
 31
0.0
  0
LINE
  5
87E
  8
0
 62
     0
 10
310.855854
 20
61.263509
 30
0.0
 11
306.960691
 21
65.158672
 31
0.0
  0
LINE
  5
87F
  8
0
 62
     0
 10
329.545934
 20
42.573429
 30
0.0
 11
320.328689
 21
51.790674
 31
0.0
  0
LINE
  5
880
  8
0
 62
     0
 10
336.624964
 20
33.586095
 30
0.0
 11
331.98256
 21
38.228498
 31
0.0
  0
LINE
  5
881
  8
0
 62
     0
 10
310.483978
 20
59.72708
 30
0.0
 11
306.336935
 21
63.874124
 31
0.0
  0
LINE
  5
882
  8
0
 62
     0
 10
329.545934
 20
40.665125
 30
0.0
 11
320.328689
 21
49.88237
 31
0.0
  0
LINE
  5
883
  8
0
 62
     0
 10
336.001207
 20
32.301547
 30
0.0
 11
330.074256
 21
38.228498
 31
0.0
  0
LINE
  5
884
  8
0
 62
     0
 10
308.575674
 20
59.72708
 30
0.0
 11
305.713178
 21
62.589576
 31
0.0
  0
LINE
  5
885
  8
0
 62
     0
 10
329.545934
 20
38.75682
 30
0.0
 11
320.328689
 21
47.974065
 31
0.0
  0
LINE
  5
886
  8
0
 62
     0
 10
335.377451
 20
31.016999
 30
0.0
 11
320.328689
 21
46.065761
 31
0.0
  0
LINE
  5
887
  8
0
 62
     0
 10
306.66737
 20
59.72708
 30
0.0
 11
305.089422
 21
61.305028
 31
0.0
  0
LINE
  5
888
  8
0
 62
     0
 10
334.753694
 20
29.732451
 30
0.0
 11
320.328689
 21
44.157457
 31
0.0
  0
LINE
  5
889
  8
0
 62
     0
 10
304.759065
 20
59.72708
 30
0.0
 11
304.465665
 21
60.02048
 31
0.0
  0
LINE
  5
88A
  8
0
 62
     0
 10
333.816061
 20
28.76178
 30
0.0
 11
320.328689
 21
42.249152
 31
0.0
  0
LINE
  5
88B
  8
0
 62
     0
 10
310.855854
 20
51.721987
 30
0.0
 11
310.608818
 21
51.969023
 31
0.0
  0
LINE
  5
88C
  8
0
 62
     0
 10
331.907757
 20
28.76178
 30
0.0
 11
320.328689
 21
40.340848
 31
0.0
  0
LINE
  5
88D
  8
0
 62
     0
 10
310.855854
 20
49.813682
 30
0.0
 11
308.700514
 21
51.969023
 31
0.0
  0
LINE
  5
88E
  8
0
 62
     0
 10
329.999452
 20
28.76178
 30
0.0
 11
320.328689
 21
38.432543
 31
0.0
  0
LINE
  5
88F
  8
0
 62
     0
 10
310.855854
 20
47.905378
 30
0.0
 11
306.792209
 21
51.969023
 31
0.0
  0
LINE
  5
890
  8
0
 62
     0
 10
328.091148
 20
28.76178
 30
0.0
 11
318.624429
 21
38.228498
 31
0.0
  0
LINE
  5
891
  8
0
 62
     0
 10
310.855854
 20
45.997073
 30
0.0
 11
304.883905
 21
51.969023
 31
0.0
  0
LINE
  5
892
  8
0
 62
     0
 10
326.182843
 20
28.76178
 30
0.0
 11
320.328689
 21
34.615934
 31
0.0
  0
LINE
  5
893
  8
0
 62
     0
 10
310.855854
 20
44.088769
 30
0.0
 11
304.323195
 21
50.621428
 31
0.0
  0
LINE
  5
894
  8
0
 62
     0
 10
319.75569
 20
35.188933
 30
0.0
 11
316.716125
 21
38.228498
 31
0.0
  0
LINE
  5
895
  8
0
 62
     0
 10
324.274539
 20
28.76178
 30
0.0
 11
320.328689
 21
32.70763
 31
0.0
  0
LINE
  5
896
  8
0
 62
     0
 10
310.855854
 20
42.180464
 30
0.0
 11
304.323195
 21
48.713124
 31
0.0
  0
LINE
  5
897
  8
0
 62
     0
 10
319.005488
 20
34.030831
 30
0.0
 11
314.80782
 21
38.228498
 31
0.0
  0
LINE
  5
898
  8
0
 62
     0
 10
322.366235
 20
28.76178
 30
0.0
 11
320.328689
 21
30.799326
 31
0.0
  0
LINE
  5
899
  8
0
 62
     0
 10
310.855854
 20
40.27216
 30
0.0
 11
304.323195
 21
46.804819
 31
0.0
  0
LINE
  5
89A
  8
0
 62
     0
 10
318.255286
 20
32.872729
 30
0.0
 11
312.899516
 21
38.228498
 31
0.0
  0
LINE
  5
89B
  8
0
 62
     0
 10
320.45793
 20
28.76178
 30
0.0
 11
320.328689
 21
28.891021
 31
0.0
  0
LINE
  5
89C
  8
0
 62
     0
 10
310.855854
 20
38.363856
 30
0.0
 11
304.323195
 21
44.896515
 31
0.0
  0
LINE
  5
89D
  8
0
 62
     0
 10
317.505084
 20
31.714626
 30
0.0
 11
310.991212
 21
38.228498
 31
0.0
  0
LINE
  5
89E
  8
0
 62
     0
 10
316.754881
 20
30.556524
 30
0.0
 11
304.323195
 21
42.988211
 31
0.0
  0
LINE
  5
89F
  8
0
 62
     0
 10
316.004679
 20
29.398422
 30
0.0
 11
304.323195
 21
41.079906
 31
0.0
  0
LINE
  5
8A0
  8
0
 62
     0
 10
314.733017
 20
28.76178
 30
0.0
 11
304.323195
 21
39.171602
 31
0.0
  0
LINE
  5
8A1
  8
0
 62
     0
 10
312.824712
 20
28.76178
 30
0.0
 11
304.323195
 21
37.263297
 31
0.0
  0
LINE
  5
8A2
  8
0
 62
     0
 10
310.916408
 20
28.76178
 30
0.0
 11
304.323195
 21
35.354993
 31
0.0
  0
LINE
  5
8A3
  8
0
 62
     0
 10
309.008104
 20
28.76178
 30
0.0
 11
304.323195
 21
33.446688
 31
0.0
  0
LINE
  5
8A4
  8
0
 62
     0
 10
307.099799
 20
28.76178
 30
0.0
 11
304.323195
 21
31.538384
 31
0.0
  0
LINE
  5
8A5
  8
0
 62
     0
 10
305.191495
 20
28.76178
 30
0.0
 11
304.323195
 21
29.63008
 31
0.0
  0
LINE
  5
8A6
  8
0
 62
     0
 10
340.367503
 20
41.293382
 30
0.0
 11
339.018768
 21
42.642117
 31
0.0
  0
LINE
  5
8A7
  8
0
 62
     0
 10
310.855854
 20
70.805031
 30
0.0
 11
310.079474
 21
71.581411
 31
0.0
  0
LINE
  5
8A8
  8
0
 62
     0
 10
321.933805
 20
59.72708
 30
0.0
 11
320.328689
 21
61.332196
 31
0.0
  0
LINE
  5
8A9
  8
0
 62
     0
 10
340.991259
 20
42.57793
 30
0.0
 11
339.018768
 21
44.550421
 31
0.0
  0
LINE
  5
8AA
  8
0
 62
     0
 10
310.855854
 20
72.713335
 30
0.0
 11
310.70323
 21
72.865959
 31
0.0
  0
LINE
  5
8AB
  8
0
 62
     0
 10
323.842109
 20
59.72708
 30
0.0
 11
320.328689
 21
63.240501
 31
0.0
  0
LINE
  5
8AC
  8
0
 62
     0
 10
341.615016
 20
43.862478
 30
0.0
 11
339.018768
 21
46.458726
 31
0.0
  0
LINE
  5
8AD
  8
0
 62
     0
 10
312.297225
 20
73.180269
 30
0.0
 11
311.326987
 21
74.150507
 31
0.0
  0
LINE
  5
8AE
  8
0
 62
     0
 10
325.750414
 20
59.72708
 30
0.0
 11
320.328689
 21
65.148805
 31
0.0
  0
LINE
  5
8AF
  8
0
 62
     0
 10
342.238772
 20
45.147026
 30
0.0
 11
339.018768
 21
48.36703
 31
0.0
  0
LINE
  5
8B0
  8
0
 62
     0
 10
314.205529
 20
73.180269
 30
0.0
 11
311.950743
 21
75.435055
 31
0.0
  0
LINE
  5
8B1
  8
0
 62
     0
 10
327.658718
 20
59.72708
 30
0.0
 11
320.328689
 21
67.05711
 31
0.0
  0
LINE
  5
8B2
  8
0
 62
     0
 10
342.862529
 20
46.431574
 30
0.0
 11
339.018768
 21
50.275335
 31
0.0
  0
LINE
  5
8B3
  8
0
 62
     0
 10
316.113834
 20
73.180269
 30
0.0
 11
312.5745
 21
76.719603
 31
0.0
  0
LINE
  5
8B4
  8
0
 62
     0
 10
329.545934
 20
59.748169
 30
0.0
 11
320.328689
 21
68.965414
 31
0.0
  0
LINE
  5
8B5
  8
0
 62
     0
 10
343.486285
 20
47.716122
 30
0.0
 11
339.233384
 21
51.969023
 31
0.0
  0
LINE
  5
8B6
  8
0
 62
     0
 10
318.022138
 20
73.180269
 30
0.0
 11
313.198256
 21
78.004151
 31
0.0
  0
LINE
  5
8B7
  8
0
 62
     0
 10
329.545934
 20
61.656473
 30
0.0
 11
320.328689
 21
70.873719
 31
0.0
  0
LINE
  5
8B8
  8
0
 62
     0
 10
344.110042
 20
49.00067
 30
0.0
 11
341.141689
 21
51.969023
 31
0.0
  0
LINE
  5
8B9
  8
0
 62
     0
 10
319.930443
 20
73.180269
 30
0.0
 11
313.822013
 21
79.288699
 31
0.0
  0
LINE
  5
8BA
  8
0
 62
     0
 10
329.545934
 20
63.564778
 30
0.0
 11
320.328689
 21
72.782023
 31
0.0
  0
LINE
  5
8BB
  8
0
 62
     0
 10
344.733798
 20
50.285218
 30
0.0
 11
343.049993
 21
51.969023
 31
0.0
  0
LINE
  5
8BC
  8
0
 62
     0
 10
329.545934
 20
65.473082
 30
0.0
 11
314.445769
 21
80.573247
 31
0.0
  0
LINE
  5
8BD
  8
0
 62
     0
 10
345.357555
 20
51.569766
 30
0.0
 11
344.958298
 21
51.969023
 31
0.0
  0
LINE
  5
8BE
  8
0
 62
     0
 10
329.545934
 20
67.381387
 30
0.0
 11
315.069526
 21
81.857795
 31
0.0
  0
LINE
  5
8BF
  8
0
 62
     0
 10
339.108545
 20
59.72708
 30
0.0
 11
339.018768
 21
59.816857
 31
0.0
  0
LINE
  5
8C0
  8
0
 62
     0
 10
329.545934
 20
69.289691
 30
0.0
 11
315.901302
 21
82.934323
 31
0.0
  0
LINE
  5
8C1
  8
0
 62
     0
 10
341.016849
 20
59.72708
 30
0.0
 11
339.018768
 21
61.725161
 31
0.0
  0
LINE
  5
8C2
  8
0
 62
     0
 10
329.545934
 20
71.197995
 30
0.0
 11
317.809606
 21
82.934323
 31
0.0
  0
LINE
  5
8C3
  8
0
 62
     0
 10
342.925154
 20
59.72708
 30
0.0
 11
339.018768
 21
63.633465
 31
0.0
  0
LINE
  5
8C4
  8
0
 62
     0
 10
329.545934
 20
73.1063
 30
0.0
 11
319.717911
 21
82.934323
 31
0.0
  0
LINE
  5
8C5
  8
0
 62
     0
 10
344.833458
 20
59.72708
 30
0.0
 11
339.018768
 21
65.54177
 31
0.0
  0
LINE
  5
8C6
  8
0
 62
     0
 10
331.380269
 20
73.180269
 30
0.0
 11
321.626215
 21
82.934323
 31
0.0
  0
LINE
  5
8C7
  8
0
 62
     0
 10
345.901903
 20
60.56694
 30
0.0
 11
339.018768
 21
67.450074
 31
0.0
  0
LINE
  5
8C8
  8
0
 62
     0
 10
329.545934
 20
76.922909
 30
0.0
 11
323.534519
 21
82.934323
 31
0.0
  0
LINE
  5
8C9
  8
0
 62
     0
 10
333.288574
 20
73.180269
 30
0.0
 11
330.05711
 21
76.411733
 31
0.0
  0
LINE
  5
8CA
  8
0
 62
     0
 10
345.901903
 20
62.475244
 30
0.0
 11
339.018768
 21
69.358379
 31
0.0
  0
LINE
  5
8CB
  8
0
 62
     0
 10
329.545934
 20
78.831213
 30
0.0
 11
325.442824
 21
82.934323
 31
0.0
  0
LINE
  5
8CC
  8
0
 62
     0
 10
335.196878
 20
73.180269
 30
0.0
 11
330.807312
 21
77.569835
 31
0.0
  0
LINE
  5
8CD
  8
0
 62
     0
 10
345.901903
 20
64.383549
 30
0.0
 11
339.018768
 21
71.266683
 31
0.0
  0
LINE
  5
8CE
  8
0
 62
     0
 10
329.545934
 20
80.739518
 30
0.0
 11
327.351128
 21
82.934323
 31
0.0
  0
LINE
  5
8CF
  8
0
 62
     0
 10
337.105182
 20
73.180269
 30
0.0
 11
331.557514
 21
78.727937
 31
0.0
  0
LINE
  5
8D0
  8
0
 62
     0
 10
345.901903
 20
66.291853
 30
0.0
 11
339.018768
 21
73.174988
 31
0.0
  0
LINE
  5
8D1
  8
0
 62
     0
 10
329.545934
 20
82.647822
 30
0.0
 11
329.259433
 21
82.934323
 31
0.0
  0
LINE
  5
8D2
  8
0
 62
     0
 10
339.013487
 20
73.180269
 30
0.0
 11
332.307716
 21
79.88604
 31
0.0
  0
LINE
  5
8D3
  8
0
 62
     0
 10
345.901903
 20
68.200158
 30
0.0
 11
333.057919
 21
81.044142
 31
0.0
  0
LINE
  5
8D4
  8
0
 62
     0
 10
345.901903
 20
70.108462
 30
0.0
 11
333.808121
 21
82.202244
 31
0.0
  0
LINE
  5
8D5
  8
0
 62
     0
 10
345.901903
 20
72.016767
 30
0.0
 11
334.984346
 21
82.934323
 31
0.0
  0
LINE
  5
8D6
  8
0
 62
     0
 10
345.901903
 20
73.925071
 30
0.0
 11
336.89265
 21
82.934323
 31
0.0
  0
LINE
  5
8D7
  8
0
 62
     0
 10
345.901903
 20
75.833375
 30
0.0
 11
338.800955
 21
82.934323
 31
0.0
  0
LINE
  5
8D8
  8
0
 62
     0
 10
345.901903
 20
77.74168
 30
0.0
 11
340.709259
 21
82.934323
 31
0.0
  0
LINE
  5
8D9
  8
0
 62
     0
 10
345.901903
 20
79.649984
 30
0.0
 11
342.617564
 21
82.934323
 31
0.0
  0
LINE
  5
8DA
  8
0
 62
     0
 10
345.901903
 20
81.558289
 30
0.0
 11
344.525868
 21
82.934323
 31
0.0
  0
ENDBLK
  5
8DC
  8
0
  0
BLOCK
  8
0
  2
*D2
 70
     1
 10
0.0
 20
0.0
 30
0.0
  3
*D2
  1

  0
LINE
  5
13D0
  8
0
  6
BYBLOCK
 62
     0
 10
17.72088
 20
2.026359
 30
0.0
 11
17.72088
 21
1.077669
 31
0.0
  0
LINE
  5
13D1
  8
0
  6
BYBLOCK
 62
     0
 10
18.31088
 20
2.162509
 30
0.0
 11
18.31088
 21
1.077669
 31
0.0
  0
LINE
  5
13D2
  8
0
  6
BYBLOCK
 62
     0
 10
18.49088
 20
1.257669
 30
0.0
 11
18.67088
 21
1.257669
 31
0.0
  0
LINE
  5
13D3
  8
0
  6
BYBLOCK
 62
     0
 10
17.54088
 20
1.257669
 30
0.0
 11
17.121297
 21
1.257669
 31
0.0
  0
SOLID
  5
13D4
  8
0
  6
BYBLOCK
 62
     0
 10
18.49088
 20
1.287669
 30
0.0
 11
18.49088
 21
1.227669
 31
0.0
 12
18.31088
 22
1.257669
 32
0.0
 13
18.31088
 23
1.257669
 33
0.0
  0
SOLID
  5
13D5
  8
0
  6
BYBLOCK
 62
     0
 10
17.54088
 20
1.287669
 30
0.0
 11
17.54088
 21
1.227669
 31
0.0
 12
17.72088
 22
1.257669
 32
0.0
 13
17.72088
 23
1.257669
 33
0.0
  0
TEXT
  8
0
  40
0.125
  5
1732
  62
0
  72
0
  71
0
 10
16.3542
 20
1.03642
 30
0.000000
  1
 0.59"
  0
TEXT
  8
0
  40
0.125
  5
1733
  62
0
  72
0
  71
0
 10
16.3542
 20
0.873919
 30
0.000000
  1
 [15.0mm]
  0
POINT
  5
13D7
  8
DEFPOINTS
  6
BYBLOCK
 62
     0
 10
17.72088
 20
2.088859
 30
0.0
  0
POINT
  5
13D8
  8
DEFPOINTS
  6
BYBLOCK
 62
     0
 10
18.31088
 20
2.225009
 30
0.0
  0
POINT
  5
13D9
  8
DEFPOINTS
  6
BYBLOCK
 62
     0
 10
18.31088
 20
1.257669
 30
0.0
  0
ENDBLK
  5
13DA
  8
0
  0
BLOCK
  8
0
  2
*D3
 70
     1
 10
0.0
 20
0.0
 30
0.0
  3
*D3
  1

  0
LINE
  5
13DC
  8
0
  6
BYBLOCK
 62
     0
 10
17.53288
 20
2.239359
 30
0.0
 11
17.53288
 21
0.153678
 31
0.0
  0
LINE
  5
13DD
  8
0
  6
BYBLOCK
 62
     0
 10
18.31088
 20
2.162509
 30
0.0
 11
18.31088
 21
0.153678
 31
0.0
  0
LINE
  5
13DE
  8
0
  6
BYBLOCK
 62
     0
 10
18.49088
 20
0.333678
 30
0.0
 11
18.67088
 21
0.333678
 31
0.0
  0
LINE
  5
13DF
  8
0
  6
BYBLOCK
 62
     0
 10
17.35288
 20
0.333678
 30
0.0
 11
16.933297
 21
0.333678
 31
0.0
  0
SOLID
  5
13E0
  8
0
  6
BYBLOCK
 62
     0
 10
18.49088
 20
0.363678
 30
0.0
 11
18.49088
 21
0.303678
 31
0.0
 12
18.31088
 22
0.333678
 32
0.0
 13
18.31088
 23
0.333678
 33
0.0
  0
SOLID
  5
13E1
  8
0
  6
BYBLOCK
 62
     0
 10
17.35288
 20
0.363678
 30
0.0
 11
17.35288
 21
0.303678
 31
0.0
 12
17.53288
 22
0.333678
 32
0.0
 13
17.53288
 23
0.333678
 33
0.0
  0
TEXT
  8
0
  40
0.125
  5
1734
  62
0
  72
0
  71
0
 10
16.1558
 20
0.112428
 30
0.000000
  1
 0.78"
  0
TEXT
  8
0
  40
0.125
  5
1735
  62
0
  72
0
  71
0
 10
16.1558
 20
-0.0500720
 30
0.000000
  1
 [19.8mm]
  0
POINT
  5
13E3
  8
DEFPOINTS
  6
BYBLOCK
 62
     0
 10
17.53288
 20
2.301859
 30
0.0
  0
POINT
  5
13E4
  8
DEFPOINTS
  6
BYBLOCK
 62
     0
 10
18.31088
 20
2.225009
 30
0.0
  0
POINT
  5
13E5
  8
DEFPOINTS
  6
BYBLOCK
 62
     0
 10
18.31088
 20
0.333678
 30
0.0
  0
ENDBLK
  5
13E6
  8
0
  0
BLOCK
  8
0
  2
*D4
 70
     1
 10
0.0
 20
0.0
 30
0.0
  3
*D4
  1

  0
LINE
  5
13F7
  8
0
  6
BYBLOCK
 62
     0
 10
17.53288
 20
9.026359
 30
0.0
 11
17.53288
 21
10.130229
 31
0.0
  0
LINE
  5
13F8
  8
0
  6
BYBLOCK
 62
     0
 10
18.18288
 20
8.569359
 30
0.0
 11
18.18288
 21
10.130229
 31
0.0
  0
LINE
  5
13F9
  8
0
  6
BYBLOCK
 62
     0
 10
18.36288
 20
9.950229
 30
0.0
 11
18.54288
 21
9.950229
 31
0.0
  0
LINE
  5
13FA
  8
0
  6
BYBLOCK
 62
     0
 10
17.35288
 20
9.950229
 30
0.0
 11
16.933297
 21
9.950229
 31
0.0
  0
SOLID
  5
13FB
  8
0
  6
BYBLOCK
 62
     0
 10
18.36288
 20
9.980229
 30
0.0
 11
18.36288
 21
9.920229
 31
0.0
 12
18.18288
 22
9.950229
 32
0.0
 13
18.18288
 23
9.950229
 33
0.0
  0
SOLID
  5
13FC
  8
0
  6
BYBLOCK
 62
     0
 10
17.35288
 20
9.980229
 30
0.0
 11
17.35288
 21
9.920229
 31
0.0
 12
17.53288
 22
9.950229
 32
0.0
 13
17.53288
 23
9.950229
 33
0.0
  0
TEXT
  8
0
  40
0.125
  5
1736
  62
0
  72
0
  71
0
 10
16.1558
 20
9.72898
 30
0.000000
  1
 0.65"
  0
TEXT
  8
0
  40
0.125
  5
1737
  62
0
  72
0
  71
0
 10
16.1558
 20
9.56648
 30
0.000000
  1
 [16.5mm]
  0
POINT
  5
13FE
  8
DEFPOINTS
  6
BYBLOCK
 62
     0
 10
17.53288
 20
8.963859
 30
0.0
  0
POINT
  5
13FF
  8
DEFPOINTS
  6
BYBLOCK
 62
     0
 10
18.18288
 20
8.506859
 30
0.0
  0
POINT
  5
1400
  8
DEFPOINTS
  6
BYBLOCK
 62
     0
 10
18.18288
 20
9.950229
 30
0.0
  0
ENDBLK
  5
1401
  8
0
  0
BLOCK
  8
0
  2
*D5
 70
     1
 10
0.0
 20
0.0
 30
0.0
  3
*D5
  1

  0
LINE
  5
141F
  8
0
  6
BYBLOCK
 62
     0
 10
13.625249
 20
2.356089
 30
0.0
 11
13.625249
 21
1.258353
 31
0.0
  0
LINE
  5
1420
  8
0
  6
BYBLOCK
 62
     0
 10
15.461559
 20
2.335593
 30
0.0
 11
15.461559
 21
1.258353
 31
0.0
  0
LINE
  5
1421
  8
0
  6
BYBLOCK
 62
     0
 10
13.805249
 20
1.438353
 30
0.0
 11
14.009713
 21
1.438353
 31
0.0
  0
LINE
  5
1422
  8
0
  6
BYBLOCK
 62
     0
 10
15.281559
 20
1.438353
 30
0.0
 11
15.106379
 21
1.438353
 31
0.0
  0
SOLID
  5
1423
  8
0
  6
BYBLOCK
 62
     0
 10
13.805249
 20
1.468353
 30
0.0
 11
13.805249
 21
1.408353
 31
0.0
 12
13.625249
 22
1.438353
 32
0.0
 13
13.625249
 23
1.438353
 33
0.0
  0
SOLID
  5
1424
  8
0
  6
BYBLOCK
 62
     0
 10
15.281559
 20
1.468353
 30
0.0
 11
15.281559
 21
1.408353
 31
0.0
 12
15.461559
 22
1.438353
 32
0.0
 13
15.461559
 23
1.438353
 33
0.0
  0
TEXT
  8
0
  40
0.125
  5
1738
  62
0
  72
0
  71
0
 10
14.3080
 20
1.21710
 30
0.000000
  1
 1.84"
  0
TEXT
  8
0
  40
0.125
  5
1739
  62
0
  72
0
  71
0
 10
14.3080
 20
1.05460
 30
0.000000
  1
 [46.6mm]
  0
POINT
  5
1426
  8
DEFPOINTS
  6
BYBLOCK
 62
     0
 10
13.625249
 20
2.418589
 30
0.0
  0
POINT
  5
1427
  8
DEFPOINTS
  6
BYBLOCK
 62
     0
 10
15.461559
 20
2.398093
 30
0.0
  0
POINT
  5
1428
  8
DEFPOINTS
  6
BYBLOCK
 62
     0
 10
15.461559
 20
1.438353
 30
0.0
  0
ENDBLK
  5
1429
  8
0
  0
BLOCK
  8
0
  2
*D6
 70
     1
 10
0.0
 20
0.0
 30
0.0
  3
*D6
  1

  0
LINE
  5
142B
  8
0
  6
BYBLOCK
 62
     0
 10
15.715349
 20
2.312509
 30
0.0
 11
15.715349
 21
0.419372
 31
0.0
  0
LINE
  5
142C
  8
0
  6
BYBLOCK
 62
     0
 10
12.920149
 20
2.312509
 30
0.0
 11
12.920149
 21
0.419372
 31
0.0
  0
LINE
  5
142D
  8
0
  6
BYBLOCK
 62
     0
 10
15.535349
 20
0.599372
 30
0.0
 11
14.881926
 21
0.599372
 31
0.0
  0
LINE
  5
142E
  8
0
  6
BYBLOCK
 62
     0
 10
13.100149
 20
0.599372
 30
0.0
 11
13.84776
 21
0.599372
 31
0.0
  0
SOLID
  5
142F
  8
0
  6
BYBLOCK
 62
     0
 10
15.535349
 20
0.629372
 30
0.0
 11
15.535349
 21
0.569372
 31
0.0
 12
15.715349
 22
0.599372
 32
0.0
 13
15.715349
 23
0.599372
 33
0.0
  0
SOLID
  5
1430
  8
0
  6
BYBLOCK
 62
     0
 10
13.100149
 20
0.629372
 30
0.0
 11
13.100149
 21
0.569372
 31
0.0
 12
12.920149
 22
0.599372
 32
0.0
 13
12.920149
 23
0.599372
 33
0.0
  0
TEXT
  8
0
  40
0.125
  5
173A
  62
0
  72
0
  71
0
 10
14.1148
 20
0.378122
 30
0.000000
  1
 2.80"
  0
TEXT
  8
0
  40
0.125
  5
173B
  62
0
  72
0
  71
0
 10
14.1148
 20
0.215622
 30
0.000000
  1
 [71.0mm]
  0
POINT
  5
1432
  8
DEFPOINTS
  6
BYBLOCK
 62
     0
 10
15.715349
 20
2.375009
 30
0.0
  0
POINT
  5
1433
  8
DEFPOINTS
  6
BYBLOCK
 62
     0
 10
12.920149
 20
2.375009
 30
0.0
  0
POINT
  5
1434
  8
DEFPOINTS
  6
BYBLOCK
 62
     0
 10
12.920149
 20
0.599372
 30
0.0
  0
ENDBLK
  5
1435
  8
0
  0
BLOCK
  8
0
  2
*D7
 70
     1
 10
0.0
 20
0.0
 30
0.0
  3
*D7
  1

  0
LINE
  5
145F
  8
0
  6
BYBLOCK
 62
     0
 10
15.700249
 20
8.535659
 30
0.0
 11
15.700249
 21
9.9863
 31
0.0
  0
LINE
  5
1460
  8
0
  6
BYBLOCK
 62
     0
 10
12.935249
 20
8.661249
 30
0.0
 11
12.935249
 21
9.9863
 31
0.0
  0
LINE
  5
1461
  8
0
  6
BYBLOCK
 62
     0
 10
15.520249
 20
9.8063
 30
0.0
 11
14.93636
 21
9.8063
 31
0.0
  0
LINE
  5
1462
  8
0
  6
BYBLOCK
 62
     0
 10
13.115249
 20
9.8063
 30
0.0
 11
13.860527
 21
9.8063
 31
0.0
  0
SOLID
  5
1463
  8
0
  6
BYBLOCK
 62
     0
 10
15.520249
 20
9.8363
 30
0.0
 11
15.520249
 21
9.7763
 31
0.0
 12
15.700249
 22
9.8063
 32
0.0
 13
15.700249
 23
9.8063
 33
0.0
  0
SOLID
  5
1464
  8
0
  6
BYBLOCK
 62
     0
 10
13.115249
 20
9.8363
 30
0.0
 11
13.115249
 21
9.7763
 31
0.0
 12
12.935249
 22
9.8063
 32
0.0
 13
12.935249
 23
9.8063
 33
0.0
  0
TEXT
  8
0
  40
0.125
  5
173C
  62
0
  72
0
  71
0
 10
14.1484
 20
9.58505
 30
0.000000
  1
 2.77"
  0
TEXT
  8
0
  40
0.125
  5
173D
  62
0
  72
0
  71
0
 10
14.1484
 20
9.42255
 30
0.000000
  1
 [70.2mm]
  0
POINT
  5
1466
  8
DEFPOINTS
  6
BYBLOCK
 62
     0
 10
15.700249
 20
8.473159
 30
0.0
  0
POINT
  5
1467
  8
DEFPOINTS
  6
BYBLOCK
 62
     0
 10
12.935249
 20
8.598749
 30
0.0
  0
POINT
  5
1468
  8
DEFPOINTS
  6
BYBLOCK
 62
     0
 10
12.935249
 20
9.8063
 30
0.0
  0
ENDBLK
  5
1469
  8
0
  0
BLOCK
  8
0
  2
*D8
 70
     1
 10
0.0
 20
0.0
 30
0.0
  3
*D8
  1

  0
LINE
  5
1453
  8
0
  6
BYBLOCK
 62
     0
 10
15.990249
 20
9.003159
 30
0.0
 11
15.990249
 21
10.758163
 31
0.0
  0
LINE
  5
1454
  8
0
  6
BYBLOCK
 62
     0
 10
12.645249
 20
9.003159
 30
0.0
 11
12.645249
 21
10.758163
 31
0.0
  0
LINE
  5
1455
  8
0
  6
BYBLOCK
 62
     0
 10
15.810249
 20
10.578163
 30
0.0
 11
14.94476
 21
10.578163
 31
0.0
  0
LINE
  5
1456
  8
0
  6
BYBLOCK
 62
     0
 10
12.825249
 20
10.578163
 30
0.0
 11
13.868927
 21
10.578163
 31
0.0
  0
SOLID
  5
1457
  8
0
  6
BYBLOCK
 62
     0
 10
15.810249
 20
10.608163
 30
0.0
 11
15.810249
 21
10.548163
 31
0.0
 12
15.990249
 22
10.578163
 32
0.0
 13
15.990249
 23
10.578163
 33
0.0
  0
SOLID
  5
1458
  8
0
  6
BYBLOCK
 62
     0
 10
12.825249
 20
10.608163
 30
0.0
 11
12.825249
 21
10.548163
 31
0.0
 12
12.645249
 22
10.578163
 32
0.0
 13
12.645249
 23
10.578163
 33
0.0
  0
TEXT
  8
0
  40
0.125
  5
173E
  62
0
  72
0
  71
0
 10
14.1568
 20
10.3569
 30
0.000000
  1
 3.35"
  0
TEXT
  8
0
  40
0.125
  5
173F
  62
0
  72
0
  71
0
 10
14.1568
 20
10.1944
 30
0.000000
  1
 [85.0mm]
  0
POINT
  5
145A
  8
DEFPOINTS
  6
BYBLOCK
 62
     0
 10
15.990249
 20
8.940659
 30
0.0
  0
POINT
  5
145B
  8
DEFPOINTS
  6
BYBLOCK
 62
     0
 10
12.645249
 20
8.940659
 30
0.0
  0
POINT
  5
145C
  8
DEFPOINTS
  6
BYBLOCK
 62
     0
 10
12.645249
 20
10.578163
 30
0.0
  0
ENDBLK
  5
145D
  8
0
  0
BLOCK
  8
0
  2
*D9
 70
     1
 10
0.0
 20
0.0
 30
0.0
  3
*D9
  1

  0
LINE
  5
1493
  8
0
  6
BYBLOCK
 62
     0
 10
15.571034
 20
8.506859
 30
0.0
 11
16.837098
 21
8.506859
 31
0.0
  0
LINE
  5
1494
  8
0
  6
BYBLOCK
 62
     0
 10
15.474639
 20
2.378859
 30
0.0
 11
16.837098
 21
2.378859
 31
0.0
  0
LINE
  5
1495
  8
0
  6
BYBLOCK
 62
     0
 10
16.657098
 20
8.326859
 30
0.0
 11
16.657098
 21
6.182322
 31
0.0
  0
LINE
  5
1496
  8
0
  6
BYBLOCK
 62
     0
 10
16.657098
 20
2.558859
 30
0.0
 11
16.657098
 21
5.002322
 31
0.0
  0
SOLID
  5
1497
  8
0
  6
BYBLOCK
 62
     0
 10
16.627098
 20
8.326859
 30
0.0
 11
16.687098
 21
8.326859
 31
0.0
 12
16.657098
 22
8.506859
 32
0.0
 13
16.657098
 23
8.506859
 33
0.0
  0
SOLID
  5
1498
  8
0
  6
BYBLOCK
 62
     0
 10
16.627098
 20
2.558859
 30
0.0
 11
16.687098
 21
2.558859
 31
0.0
 12
16.657098
 22
2.378859
 32
0.0
 13
16.657098
 23
2.378859
 33
0.0
  0
TEXT
  8
0
  40
0.125
  5
1740
  62
0
  72
0
  71
0
 10
16.4071
 20
5.37107
 30
0.000000
  1
 6.13"
  0
TEXT
  8
0
  40
0.125
  5
1741
  62
0
  72
0
  71
0
 10
16.4071
 20
5.20857
 30
0.000000
  1
 [155.7mm]
  0
POINT
  5
149A
  8
DEFPOINTS
  6
BYBLOCK
 62
     0
 10
15.508534
 20
8.506859
 30
0.0
  0
POINT
  5
149B
  8
DEFPOINTS
  6
BYBLOCK
 62
     0
 10
15.412139
 20
2.378859
 30
0.0
  0
POINT
  5
149C
  8
DEFPOINTS
  6
BYBLOCK
 62
     0
 10
16.657098
 20
2.378859
 30
0.0
  0
ENDBLK
  5
149D
  8
0
  0
BLOCK
  8
0
  2
*D10
 70
     1
 10
0.0
 20
0.0
 30
0.0
  3
*D10
  1

  0
LINE
  5
1487
  8
0
  6
BYBLOCK
 62
     0
 10
15.777849
 20
8.890709
 30
0.0
 11
17.558498
 21
8.890709
 31
0.0
  0
LINE
  5
1488
  8
0
  6
BYBLOCK
 62
     0
 10
15.777849
 20
2.375009
 30
0.0
 11
17.558498
 21
2.375009
 31
0.0
  0
LINE
  5
1489
  8
0
  6
BYBLOCK
 62
     0
 10
17.378498
 20
8.710709
 30
0.0
 11
17.378498
 21
6.160489
 31
0.0
  0
LINE
  5
148A
  8
0
  6
BYBLOCK
 62
     0
 10
17.378498
 20
2.555009
 30
0.0
 11
17.378498
 21
4.980489
 31
0.0
  0
SOLID
  5
148B
  8
0
  6
BYBLOCK
 62
     0
 10
17.348498
 20
8.710709
 30
0.0
 11
17.408498
 21
8.710709
 31
0.0
 12
17.378498
 22
8.890709
 32
0.0
 13
17.378498
 23
8.890709
 33
0.0
  0
SOLID
  5
148C
  8
0
  6
BYBLOCK
 62
     0
 10
17.348498
 20
2.555009
 30
0.0
 11
17.408498
 21
2.555009
 31
0.0
 12
17.378498
 22
2.375009
 32
0.0
 13
17.378498
 23
2.375009
 33
0.0
  0
TEXT
  8
0
  40
0.125
  5
1742
  62
0
  72
0
  71
0
 10
17.1285
 20
5.34924
 30
0.000000
  1
 6.52"
  0
TEXT
  8
0
  40
0.125
  5
1743
  62
0
  72
0
  71
0
 10
17.1285
 20
5.18674
 30
0.000000
  1
 [165.5mm]
  0
POINT
  5
148E
  8
DEFPOINTS
  6
BYBLOCK
 62
     0
 10
15.715349
 20
8.890709
 30
0.0
  0
POINT
  5
148F
  8
DEFPOINTS
  6
BYBLOCK
 62
     0
 10
15.715349
 20
2.375009
 30
0.0
  0
POINT
  5
1490
  8
DEFPOINTS
  6
BYBLOCK
 62
     0
 10
17.378498
 20
2.375009
 30
0.0
  0
ENDBLK
  5
1491
  8
0
  0
BLOCK
  8
0
  2
*D11
 70
     1
 10
0.0
 20
0.0
 30
0.0
  3
*D11
  1

  0
LINE
  5
14B3
  8
0
  6
BYBLOCK
 62
     0
 10
13.600151
 20
2.832531
 30
0.0
 11
13.922547
 21
3.255961
 31
0.0
  0
LINE
  5
14B4
  8
0
  6
BYBLOCK
 62
     0
 10
13.922547
 20
3.255961
 30
0.0
 11
14.102547
 21
3.255961
 31
0.0
  0
SOLID
  5
14B5
  8
0
  6
BYBLOCK
 62
     0
 10
13.576282
 20
2.850705
 30
0.0
 11
13.624019
 21
2.814357
 31
0.0
 12
13.491109
 22
2.689318
 32
0.0
 13
13.491109
 23
2.689318
 33
0.0
  0
TEXT
  8
0
  40
0.125
  5
1744
  62
0
  72
0
  71
0
 10
14.4009
 20
3.03471
 30
0.000000
  1
 R0.34"
  0
TEXT
  8
0
  40
0.125
  5
1745
  62
0
  72
0
  71
0
 10
14.4009
 20
2.87221
 30
0.000000
  1
 [R8.6mm]
  0
POINT
  5
14B7
  8
DEFPOINTS
  6
BYBLOCK
 62
     0
 10
13.491109
 20
2.689318
 30
0.0
  0
POINT
  5
14B8
  8
DEFPOINTS
  6
BYBLOCK
 62
     0
 10
13.284979
 20
2.418589
 30
0.0
  0
ENDBLK
  5
14B9
  8
0
  0
BLOCK
  8
0
  2
*D12
 70
     1
 10
0.0
 20
0.0
 30
0.0
  3
*D12
  1

  0
LINE
  5
14BB
  8
0
  6
BYBLOCK
 62
     0
 10
12.684167
 20
1.958586
 30
0.0
 11
12.196275
 21
1.05227
 31
0.0
  0
LINE
  5
14BC
  8
0
  6
BYBLOCK
 62
     0
 10
12.196275
 20
1.05227
 30
0.0
 11
12.016275
 21
1.05227
 31
0.0
  0
SOLID
  5
14BD
  8
0
  6
BYBLOCK
 62
     0
 10
12.657752
 20
1.972807
 30
0.0
 11
12.710583
 21
1.944366
 31
0.0
 12
12.769488
 22
2.11708
 32
0.0
 13
12.769488
 23
2.11708
 33
0.0
  0
TEXT
  8
0
  40
0.125
  5
1746
  62
0
  72
0
  71
0
 10
11.2284
 20
0.831020
 30
0.000000
  1
 R0.24"
  0
TEXT
  8
0
  40
0.125
  5
1747
  62
0
  72
0
  71
0
 10
11.2284
 20
0.668520
 30
0.000000
  1
 [R6.0mm]
  0
POINT
  5
14BF
  8
DEFPOINTS
  6
BYBLOCK
 62
     0
 10
12.769488
 20
2.11708
 30
0.0
  0
POINT
  5
14C0
  8
DEFPOINTS
  6
BYBLOCK
 62
     0
 10
12.881449
 20
2.325059
 30
0.0
  0
ENDBLK
  5
14C1
  8
0
  0
BLOCK
  8
0
  2
*D13
 70
     1
 10
0.0
 20
0.0
 30
0.0
  3
*D13
  1

  0
LINE
  5
14D1
  8
0
  6
BYBLOCK
 62
     0
 10
9.59643
 20
9.065859
 30
0.0
 11
10.284003
 21
9.065859
 31
0.0
  0
LINE
  5
14D2
  8
0
  6
BYBLOCK
 62
     0
 10
9.59643
 20
2.199859
 30
0.0
 11
10.284003
 21
2.199859
 31
0.0
  0
LINE
  5
14D3
  8
0
  6
BYBLOCK
 62
     0
 10
10.104003
 20
8.885859
 30
0.0
 11
10.104003
 21
6.229881
 31
0.0
  0
LINE
  5
14D4
  8
0
  6
BYBLOCK
 62
     0
 10
10.104003
 20
2.379859
 30
0.0
 11
10.104003
 21
5.049881
 31
0.0
  0
SOLID
  5
14D5
  8
0
  6
BYBLOCK
 62
     0
 10
10.074003
 20
8.885859
 30
0.0
 11
10.134003
 21
8.885859
 31
0.0
 12
10.104003
 22
9.065859
 32
0.0
 13
10.104003
 23
9.065859
 33
0.0
  0
SOLID
  5
14D6
  8
0
  6
BYBLOCK
 62
     0
 10
10.074003
 20
2.379859
 30
0.0
 11
10.134003
 21
2.379859
 31
0.0
 12
10.104003
 22
2.199859
 32
0.0
 13
10.104003
 23
2.199859
 33
0.0
  0
TEXT
  8
0
  40
0.125
  5
1748
  62
0
  72
0
  71
0
 10
9.85400
 20
5.41863
 30
0.000000
  1
 6.87"
  0
TEXT
  8
0
  40
0.125
  5
1749
  62
0
  72
0
  71
0
 10
9.85400
 20
5.25613
 30
0.000000
  1
 [174.4mm]
  0
POINT
  5
14D8
  8
DEFPOINTS
  6
BYBLOCK
 62
     0
 10
9.53393
 20
9.065859
 30
0.0
  0
POINT
  5
14D9
  8
DEFPOINTS
  6
BYBLOCK
 62
     0
 10
9.53393
 20
2.199859
 30
0.0
  0
POINT
  5
14DA
  8
DEFPOINTS
  6
BYBLOCK
 62
     0
 10
10.104003
 20
2.199859
 30
0.0
  0
ENDBLK
  5
14DB
  8
0
  0
BLOCK
  8
0
  2
*D14
 70
     1
 10
0.0
 20
0.0
 30
0.0
  3
*D14
  1

  0
LINE
  5
1507
  8
0
  6
BYBLOCK
 62
     0
 10
8.32693
 20
9.094359
 30
0.0
 11
8.32693
 21
9.939179
 31
0.0
  0
LINE
  5
1508
  8
0
  6
BYBLOCK
 62
     0
 10
9.39193
 20
8.614359
 30
0.0
 11
9.39193
 21
9.939179
 31
0.0
  0
LINE
  5
1509
  8
0
  6
BYBLOCK
 62
     0
 10
8.14693
 20
9.759179
 30
0.0
 11
7.96693
 21
9.759179
 31
0.0
  0
LINE
  5
150A
  8
0
  6
BYBLOCK
 62
     0
 10
9.57193
 20
9.759179
 30
0.0
 11
9.97068
 21
9.759179
 31
0.0
  0
SOLID
  5
150B
  8
0
  6
BYBLOCK
 62
     0
 10
8.14693
 20
9.789179
 30
0.0
 11
8.14693
 21
9.729179
 31
0.0
 12
8.32693
 22
9.759179
 32
0.0
 13
8.32693
 23
9.759179
 33
0.0
  0
SOLID
  5
150C
  8
0
  6
BYBLOCK
 62
     0
 10
9.57193
 20
9.789179
 30
0.0
 11
9.57193
 21
9.729179
 31
0.0
 12
9.39193
 22
9.759179
 32
0.0
 13
9.39193
 23
9.759179
 33
0.0
  0
TEXT
  8
0
  40
0.125
  5
174A
  62
0
  72
0
  71
0
 10
10.2482
 20
9.53793
 30
0.000000
  1
 1.07"
  0
TEXT
  8
0
  40
0.125
  5
174B
  62
0
  72
0
  71
0
 10
10.2482
 20
9.37543
 30
0.000000
  1
 [27.1mm]
  0
POINT
  5
150E
  8
DEFPOINTS
  6
BYBLOCK
 62
     0
 10
8.32693
 20
9.031859
 30
0.0
  0
POINT
  5
150F
  8
DEFPOINTS
  6
BYBLOCK
 62
     0
 10
9.39193
 20
8.551859
 30
0.0
  0
POINT
  5
1510
  8
DEFPOINTS
  6
BYBLOCK
 62
     0
 10
9.39193
 20
9.759179
 30
0.0
  0
ENDBLK
  5
1511
  8
0
  0
BLOCK
  8
0
  2
*D15
 70
     1
 10
0.0
 20
0.0
 30
0.0
  3
*D15
  1

  0
LINE
  5
151F
  8
0
  6
BYBLOCK
 62
     0
 10
8.32693
 20
2.171359
 30
0.0
 11
8.32693
 21
0.568215
 31
0.0
  0
LINE
  5
1520
  8
0
  6
BYBLOCK
 62
     0
 10
9.53393
 20
2.137359
 30
0.0
 11
9.53393
 21
0.568215
 31
0.0
  0
LINE
  5
1521
  8
0
  6
BYBLOCK
 62
     0
 10
9.71393
 20
0.748215
 30
0.0
 11
9.89393
 21
0.748215
 31
0.0
  0
LINE
  5
1522
  8
0
  6
BYBLOCK
 62
     0
 10
8.14693
 20
0.748215
 30
0.0
 11
7.758596
 21
0.748215
 31
0.0
  0
SOLID
  5
1523
  8
0
  6
BYBLOCK
 62
     0
 10
9.71393
 20
0.778215
 30
0.0
 11
9.71393
 21
0.718215
 31
0.0
 12
9.53393
 22
0.748215
 32
0.0
 13
9.53393
 23
0.748215
 33
0.0
  0
SOLID
  5
1524
  8
0
  6
BYBLOCK
 62
     0
 10
8.14693
 20
0.778215
 30
0.0
 11
8.14693
 21
0.718215
 31
0.0
 12
8.32693
 22
0.748215
 32
0.0
 13
8.32693
 23
0.748215
 33
0.0
  0
TEXT
  8
0
  40
0.125
  5
174C
  62
0
  72
0
  71
0
 10
6.97068
 20
0.526965
 30
0.000000
  1
 1.21"
  0
TEXT
  8
0
  40
0.125
  5
174D
  62
0
  72
0
  71
0
 10
6.97068
 20
0.364465
 30
0.000000
  1
 [30.7mm]
  0
POINT
  5
1526
  8
DEFPOINTS
  6
BYBLOCK
 62
     0
 10
8.32693
 20
2.233859
 30
0.0
  0
POINT
  5
1527
  8
DEFPOINTS
  6
BYBLOCK
 62
     0
 10
9.53393
 20
2.199859
 30
0.0
  0
POINT
  5
1528
  8
DEFPOINTS
  6
BYBLOCK
 62
     0
 10
9.53393
 20
0.748215
 30
0.0
  0
ENDBLK
  5
1529
  8
0
  0
BLOCK
  8
0
  2
*D16
 70
     1
 10
0.0
 20
0.0
 30
0.0
  3
*D16
  1

  0
LINE
  5
1513
  8
0
  6
BYBLOCK
 62
     0
 10
8.43193
 20
2.026359
 30
0.0
 11
8.43193
 21
1.311978
 31
0.0
  0
LINE
  5
1514
  8
0
  6
BYBLOCK
 62
     0
 10
9.53393
 20
2.233769
 30
0.0
 11
9.53393
 21
1.311978
 31
0.0
  0
LINE
  5
1515
  8
0
  6
BYBLOCK
 62
     0
 10
9.71393
 20
1.491978
 30
0.0
 11
9.89393
 21
1.491978
 31
0.0
  0
LINE
  5
1516
  8
0
  6
BYBLOCK
 62
     0
 10
8.25193
 20
1.491978
 30
0.0
 11
7.874013
 21
1.491978
 31
0.0
  0
SOLID
  5
1517
  8
0
  6
BYBLOCK
 62
     0
 10
9.71393
 20
1.521978
 30
0.0
 11
9.71393
 21
1.461978
 31
0.0
 12
9.53393
 22
1.491978
 32
0.0
 13
9.53393
 23
1.491978
 33
0.0
  0
SOLID
  5
1518
  8
0
  6
BYBLOCK
 62
     0
 10
8.25193
 20
1.521978
 30
0.0
 11
8.25193
 21
1.461978
 31
0.0
 12
8.43193
 22
1.491978
 32
0.0
 13
8.43193
 23
1.491978
 33
0.0
  0
TEXT
  8
0
  40
0.125
  5
174E
  62
0
  72
0
  71
0
 10
7.08610
 20
1.27073
 30
0.000000
  1
 1.10"
  0
TEXT
  8
0
  40
0.125
  5
174F
  62
0
  72
0
  71
0
 10
7.08610
 20
1.10823
 30
0.000000
  1
 [28.0mm]
  0
POINT
  5
151A
  8
DEFPOINTS
  6
BYBLOCK
 62
     0
 10
8.43193
 20
2.088859
 30
0.0
  0
POINT
  5
151B
  8
DEFPOINTS
  6
BYBLOCK
 62
     0
 10
9.53393
 20
2.296269
 30
0.0
  0
POINT
  5
151C
  8
DEFPOINTS
  6
BYBLOCK
 62
     0
 10
9.53393
 20
1.491978
 30
0.0
  0
ENDBLK
  5
151D
  8
0
  0
BLOCK
  8
0
  2
*D17
 70
     1
 10
0.0
 20
0.0
 30
0.0
  3
*D17
  1

  0
LINE
  5
1539
  8
0
  6
BYBLOCK
 62
     0
 10
3.254123
 20
12.600367
 30
0.0
 11
3.254123
 21
13.353398
 31
0.0
  0
LINE
  5
153A
  8
0
  6
BYBLOCK
 62
     0
 10
6.377123
 20
12.600367
 30
0.0
 11
6.377123
 21
13.353398
 31
0.0
  0
LINE
  5
153B
  8
0
  6
BYBLOCK
 62
     0
 10
3.434123
 20
13.173398
 30
0.0
 11
4.240216
 21
13.173398
 31
0.0
  0
LINE
  5
153C
  8
0
  6
BYBLOCK
 62
     0
 10
6.197123
 20
13.173398
 30
0.0
 11
5.336883
 21
13.173398
 31
0.0
  0
SOLID
  5
153D
  8
0
  6
BYBLOCK
 62
     0
 10
3.434123
 20
13.203398
 30
0.0
 11
3.434123
 21
13.143398
 31
0.0
 12
3.254123
 22
13.173398
 32
0.0
 13
3.254123
 23
13.173398
 33
0.0
  0
SOLID
  5
153E
  8
0
  6
BYBLOCK
 62
     0
 10
6.197123
 20
13.203398
 30
0.0
 11
6.197123
 21
13.143398
 31
0.0
 12
6.377123
 22
13.173398
 32
0.0
 13
6.377123
 23
13.173398
 33
0.0
  0
TEXT
  8
0
  40
0.125
  5
1750
  62
0
  72
0
  71
0
 10
4.53855
 20
12.9521
 30
0.000000
  1
 3.12"
  0
TEXT
  8
0
  40
0.125
  5
1751
  62
0
  72
0
  71
0
 10
4.53855
 20
12.7896
 30
0.000000
  1
 [79.3mm]
  0
POINT
  5
1540
  8
DEFPOINTS
  6
BYBLOCK
 62
     0
 10
3.254123
 20
12.537867
 30
0.0
  0
POINT
  5
1541
  8
DEFPOINTS
  6
BYBLOCK
 62
     0
 10
6.377123
 20
12.537867
 30
0.0
  0
POINT
  5
1542
  8
DEFPOINTS
  6
BYBLOCK
 62
     0
 10
6.377123
 20
13.173398
 30
0.0
  0
ENDBLK
  5
1543
  8
0
  0
BLOCK
  8
0
  2
*D18
 70
     1
 10
0.0
 20
0.0
 30
0.0
  3
*D18
  1

  0
LINE
  5
1561
  8
0
  6
BYBLOCK
 62
     0
 10
6.275723
 20
2.375009
 30
0.0
 11
7.175759
 21
2.375009
 31
0.0
  0
LINE
  5
1562
  8
0
  6
BYBLOCK
 62
     0
 10
6.275723
 20
8.890709
 30
0.0
 11
7.175759
 21
8.890709
 31
0.0
  0
LINE
  5
1563
  8
0
  6
BYBLOCK
 62
     0
 10
6.995759
 20
2.555009
 30
0.0
 11
6.995759
 21
4.928727
 31
0.0
  0
LINE
  5
1564
  8
0
  6
BYBLOCK
 62
     0
 10
6.995759
 20
8.710709
 30
0.0
 11
6.995759
 21
6.108727
 31
0.0
  0
SOLID
  5
1565
  8
0
  6
BYBLOCK
 62
     0
 10
6.965759
 20
2.555009
 30
0.0
 11
7.025759
 21
2.555009
 31
0.0
 12
6.995759
 22
2.375009
 32
0.0
 13
6.995759
 23
2.375009
 33
0.0
  0
SOLID
  5
1566
  8
0
  6
BYBLOCK
 62
     0
 10
6.965759
 20
8.710709
 30
0.0
 11
7.025759
 21
8.710709
 31
0.0
 12
6.995759
 22
8.890709
 32
0.0
 13
6.995759
 23
8.890709
 33
0.0
  0
TEXT
  8
0
  40
0.125
  5
1752
  62
0
  72
0
  71
0
 10
6.74576
 20
5.29748
 30
0.000000
  1
 6.52"
  0
TEXT
  8
0
  40
0.125
  5
1753
  62
0
  72
0
  71
0
 10
6.74576
 20
5.13498
 30
0.000000
  1
 [165.5mm]
  0
POINT
  5
1568
  8
DEFPOINTS
  6
BYBLOCK
 62
     0
 10
6.213223
 20
2.375009
 30
0.0
  0
POINT
  5
1569
  8
DEFPOINTS
  6
BYBLOCK
 62
     0
 10
6.213223
 20
8.890709
 30
0.0
  0
POINT
  5
156A
  8
DEFPOINTS
  6
BYBLOCK
 62
     0
 10
6.995759
 20
8.890709
 30
0.0
  0
ENDBLK
  5
156B
  8
0
  0
BLOCK
  8
0
  2
*D19
 70
     1
 10
0.0
 20
0.0
 30
0.0
  3
*D19
  1

  0
LINE
  5
156D
  8
0
  6
BYBLOCK
 62
     0
 10
5.536923
 20
2.333859
 30
0.0
 11
7.896325
 21
2.333859
 31
0.0
  0
LINE
  5
156E
  8
0
  6
BYBLOCK
 62
     0
 10
5.972513
 20
8.931859
 30
0.0
 11
7.896325
 21
8.931859
 31
0.0
  0
LINE
  5
156F
  8
0
  6
BYBLOCK
 62
     0
 10
7.716325
 20
2.513859
 30
0.0
 11
7.716325
 21
4.928727
 31
0.0
  0
LINE
  5
1570
  8
0
  6
BYBLOCK
 62
     0
 10
7.716325
 20
8.751859
 30
0.0
 11
7.716325
 21
6.108727
 31
0.0
  0
SOLID
  5
1571
  8
0
  6
BYBLOCK
 62
     0
 10
7.686325
 20
2.513859
 30
0.0
 11
7.746325
 21
2.513859
 31
0.0
 12
7.716325
 22
2.333859
 32
0.0
 13
7.716325
 23
2.333859
 33
0.0
  0
SOLID
  5
1572
  8
0
  6
BYBLOCK
 62
     0
 10
7.686325
 20
8.751859
 30
0.0
 11
7.746325
 21
8.751859
 31
0.0
 12
7.716325
 22
8.931859
 32
0.0
 13
7.716325
 23
8.931859
 33
0.0
  0
TEXT
  8
0
  40
0.125
  5
1754
  62
0
  72
0
  71
0
 10
7.46633
 20
5.29748
 30
0.000000
  1
 6.60"
  0
TEXT
  8
0
  40
0.125
  5
1755
  62
0
  72
0
  71
0
 10
7.46633
 20
5.13498
 30
0.000000
  1
 [167.6mm]
  0
POINT
  5
1574
  8
DEFPOINTS
  6
BYBLOCK
 62
     0
 10
5.474423
 20
2.333859
 30
0.0
  0
POINT
  5
1575
  8
DEFPOINTS
  6
BYBLOCK
 62
     0
 10
5.910013
 20
8.931859
 30
0.0
  0
POINT
  5
1576
  8
DEFPOINTS
  6
BYBLOCK
 62
     0
 10
7.716325
 20
8.931859
 30
0.0
  0
ENDBLK
  5
1577
  8
0
  0
BLOCK
  8
0
  2
*D20
 70
     1
 10
0.0
 20
0.0
 30
0.0
  3
*D20
  1

  0
LINE
  5
15A3
  8
0
  6
BYBLOCK
 62
     0
 10
2.634229
 20
8.551859
 30
0.0
 11
1.429927
 21
8.551859
 31
0.0
  0
LINE
  5
15A4
  8
0
  6
BYBLOCK
 62
     0
 10
2.428586
 20
2.58713
 30
0.0
 11
1.429927
 21
2.58713
 31
0.0
  0
LINE
  5
15A5
  8
0
  6
BYBLOCK
 62
     0
 10
1.609927
 20
8.371859
 30
0.0
 11
1.609927
 21
6.157596
 31
0.0
  0
LINE
  5
15A6
  8
0
  6
BYBLOCK
 62
     0
 10
1.609927
 20
2.76713
 30
0.0
 11
1.609927
 21
5.019262
 31
0.0
  0
SOLID
  5
15A7
  8
0
  6
BYBLOCK
 62
     0
 10
1.579927
 20
8.371859
 30
0.0
 11
1.639927
 21
8.371859
 31
0.0
 12
1.609927
 22
8.551859
 32
0.0
 13
1.609927
 23
8.551859
 33
0.0
  0
SOLID
  5
15A8
  8
0
  6
BYBLOCK
 62
     0
 10
1.579927
 20
2.76713
 30
0.0
 11
1.639927
 21
2.76713
 31
0.0
 12
1.609927
 22
2.58713
 32
0.0
 13
1.609927
 23
2.58713
 33
0.0
  0
TEXT
  8
0
  40
0.125
  5
1756
  62
0
  72
0
  71
0
 10
1.35993
 20
5.36718
 30
0.000000
  1
 5.97"
  0
TEXT
  8
0
  40
0.125
  5
1757
  62
0
  72
0
  71
0
 10
1.35993
 20
5.20468
 30
0.000000
  1
 [151.5mm]
  0
POINT
  5
15AA
  8
DEFPOINTS
  6
BYBLOCK
 62
     0
 10
2.696729
 20
8.551859
 30
0.0
  0
POINT
  5
15AB
  8
DEFPOINTS
  6
BYBLOCK
 62
     0
 10
2.491086
 20
2.58713
 30
0.0
  0
POINT
  5
15AC
  8
DEFPOINTS
  6
BYBLOCK
 62
     0
 10
1.609927
 20
2.58713
 30
0.0
  0
ENDBLK
  5
15AD
  8
0
  0
BLOCK
  8
0
  2
*D21
 70
     1
 10
0.0
 20
0.0
 30
0.0
  3
*D21
  1

  0
LINE
  5
15AF
  8
0
  6
BYBLOCK
 62
     0
 10
3.245014
 20
8.704359
 30
0.0
 11
0.737619
 21
8.704359
 31
0.0
  0
LINE
  5
15B0
  8
0
  6
BYBLOCK
 62
     0
 10
2.889014
 20
2.561359
 30
0.0
 11
0.737619
 21
2.561359
 31
0.0
  0
LINE
  5
15B1
  8
0
  6
BYBLOCK
 62
     0
 10
0.917619
 20
8.524359
 30
0.0
 11
0.917619
 21
6.168012
 31
0.0
  0
LINE
  5
15B2
  8
0
  6
BYBLOCK
 62
     0
 10
0.917619
 20
2.741359
 30
0.0
 11
0.917619
 21
5.008846
 31
0.0
  0
SOLID
  5
15B3
  8
0
  6
BYBLOCK
 62
     0
 10
0.887619
 20
8.524359
 30
0.0
 11
0.947619
 21
8.524359
 31
0.0
 12
0.917619
 22
8.704359
 32
0.0
 13
0.917619
 23
8.704359
 33
0.0
  0
SOLID
  5
15B4
  8
0
  6
BYBLOCK
 62
     0
 10
0.887619
 20
2.741359
 30
0.0
 11
0.947619
 21
2.741359
 31
0.0
 12
0.917619
 22
2.561359
 32
0.0
 13
0.917619
 23
2.561359
 33
0.0
  0
TEXT
  8
0
  40
0.125
  5
1758
  62
0
  72
0
  71
0
 10
0.667619
 20
5.36718
 30
0.000000
  1
 6.14"
  0
TEXT
  8
0
  40
0.125
  5
1759
  62
0
  72
0
  71
0
 10
0.667619
 20
5.20468
 30
0.000000
  1
 [156.0mm]
  0
POINT
  5
15B6
  8
DEFPOINTS
  6
BYBLOCK
 62
     0
 10
3.307514
 20
8.704359
 30
0.0
  0
POINT
  5
15B7
  8
DEFPOINTS
  6
BYBLOCK
 62
     0
 10
2.951514
 20
2.561359
 30
0.0
  0
POINT
  5
15B8
  8
DEFPOINTS
  6
BYBLOCK
 62
     0
 10
0.917619
 20
2.561359
 30
0.0
  0
ENDBLK
  5
15B9
  8
0
  0
BLOCK
  8
0
  2
*D22
 70
     1
 10
0.0
 20
0.0
 30
0.0
  3
*D22
  1

  0
LINE
  5
15BB
  8
0
  6
BYBLOCK
 62
     0
 10
2.388714
 20
9.176859
 30
0.0
 11
0.024332
 21
9.176859
 31
0.0
  0
LINE
  5
15BC
  8
0
  6
BYBLOCK
 62
     0
 10
2.388714
 20
2.088859
 30
0.0
 11
0.024332
 21
2.088859
 31
0.0
  0
LINE
  5
15BD
  8
0
  6
BYBLOCK
 62
     0
 10
0.204332
 20
8.996859
 30
0.0
 11
0.204332
 21
6.157596
 31
0.0
  0
LINE
  5
15BE
  8
0
  6
BYBLOCK
 62
     0
 10
0.204332
 20
2.268859
 30
0.0
 11
0.204332
 21
5.019262
 31
0.0
  0
SOLID
  5
15BF
  8
0
  6
BYBLOCK
 62
     0
 10
0.174332
 20
8.996859
 30
0.0
 11
0.234332
 21
8.996859
 31
0.0
 12
0.204332
 22
9.176859
 32
0.0
 13
0.204332
 23
9.176859
 33
0.0
  0
SOLID
  5
15C0
  8
0
  6
BYBLOCK
 62
     0
 10
0.174332
 20
2.268859
 30
0.0
 11
0.234332
 21
2.268859
 31
0.0
 12
0.204332
 22
2.088859
 32
0.0
 13
0.204332
 23
2.088859
 33
0.0
  0
TEXT
  8
0
  40
0.125
  5
175A
  62
0
  72
0
  71
0
 10
-0.0456680
 20
5.36718
 30
0.000000
  1
 7.09"
  0
TEXT
  8
0
  40
0.125
  5
175B
  62
0
  72
0
  71
0
 10
-0.0456680
 20
5.20468
 30
0.000000
  1
 [180.0mm]
  0
POINT
  5
15C2
  8
DEFPOINTS
  6
BYBLOCK
 62
     0
 10
2.451214
 20
9.176859
 30
0.0
  0
POINT
  5
15C3
  8
DEFPOINTS
  6
BYBLOCK
 62
     0
 10
2.451214
 20
2.088859
 30
0.0
  0
POINT
  5
15C4
  8
DEFPOINTS
  6
BYBLOCK
 62
     0
 10
0.204332
 20
2.088859
 30
0.0
  0
ENDBLK
  5
15C5
  8
0
  0
BLOCK
  8
0
  2
*D23
 70
     1
 10
0.0
 20
0.0
 30
0.0
  3
*D23
  1

  0
LINE
  5
160B
  8
0
  6
BYBLOCK
 62
     0
 10
4.625014
 20
2.356089
 30
0.0
 11
4.625014
 21
1.319501
 31
0.0
  0
LINE
  5
160C
  8
0
  6
BYBLOCK
 62
     0
 10
2.713285
 20
2.302431
 30
0.0
 11
2.713285
 21
1.319501
 31
0.0
  0
LINE
  5
160D
  8
0
  6
BYBLOCK
 62
     0
 10
4.445014
 20
1.499501
 30
0.0
 11
4.21513
 21
1.499501
 31
0.0
  0
LINE
  5
160E
  8
0
  6
BYBLOCK
 62
     0
 10
2.893285
 20
1.499501
 30
0.0
 11
3.118463
 21
1.499501
 31
0.0
  0
SOLID
  5
160F
  8
0
  6
BYBLOCK
 62
     0
 10
4.445014
 20
1.529501
 30
0.0
 11
4.445014
 21
1.469501
 31
0.0
 12
4.625014
 22
1.499501
 32
0.0
 13
4.625014
 23
1.499501
 33
0.0
  0
SOLID
  5
1610
  8
0
  6
BYBLOCK
 62
     0
 10
2.893285
 20
1.529501
 30
0.0
 11
2.893285
 21
1.469501
 31
0.0
 12
2.713285
 22
1.499501
 32
0.0
 13
2.713285
 23
1.499501
 33
0.0
  0
TEXT
  8
0
  40
0.125
  5
175C
  62
0
  72
0
  71
0
 10
3.41680
 20
1.27825
 30
0.000000
  1
 1.91"
  0
TEXT
  8
0
  40
0.125
  5
175D
  62
0
  72
0
  71
0
 10
3.41680
 20
1.11575
 30
0.000000
  1
 [48.6mm]
  0
POINT
  5
1612
  8
DEFPOINTS
  6
BYBLOCK
 62
     0
 10
4.625014
 20
2.418589
 30
0.0
  0
POINT
  5
1613
  8
DEFPOINTS
  6
BYBLOCK
 62
     0
 10
2.713285
 20
2.364931
 30
0.0
  0
POINT
  5
1614
  8
DEFPOINTS
  6
BYBLOCK
 62
     0
 10
2.713285
 20
1.499501
 30
0.0
  0
ENDBLK
  5
1615
  8
0
  0
BLOCK
  8
0
  2
*D24
 70
     1
 10
0.0
 20
0.0
 30
0.0
  3
*D24
  1

  0
LINE
  5
15FF
  8
0
  6
BYBLOCK
 62
     0
 10
5.315014
 20
2.730059
 30
0.0
 11
5.315014
 21
0.538779
 31
0.0
  0
LINE
  5
1600
  8
0
  6
BYBLOCK
 62
     0
 10
2.460014
 20
2.651359
 30
0.0
 11
2.460014
 21
0.538779
 31
0.0
  0
LINE
  5
1601
  8
0
  6
BYBLOCK
 62
     0
 10
5.135014
 20
0.718779
 30
0.0
 11
4.541804
 21
0.718779
 31
0.0
  0
LINE
  5
1602
  8
0
  6
BYBLOCK
 62
     0
 10
2.640014
 20
0.718779
 30
0.0
 11
3.445137
 21
0.718779
 31
0.0
  0
SOLID
  5
1603
  8
0
  6
BYBLOCK
 62
     0
 10
5.135014
 20
0.748779
 30
0.0
 11
5.135014
 21
0.688779
 31
0.0
 12
5.315014
 22
0.718779
 32
0.0
 13
5.315014
 23
0.718779
 33
0.0
  0
SOLID
  5
1604
  8
0
  6
BYBLOCK
 62
     0
 10
2.640014
 20
0.748779
 30
0.0
 11
2.640014
 21
0.688779
 31
0.0
 12
2.460014
 22
0.718779
 32
0.0
 13
2.460014
 23
0.718779
 33
0.0
  0
TEXT
  8
0
  40
0.125
  5
175E
  62
0
  72
0
  71
0
 10
3.74347
 20
0.497529
 30
0.000000
  1
 2.86"
  0
TEXT
  8
0
  40
0.125
  5
175F
  62
0
  72
0
  71
0
 10
3.74347
 20
0.335029
 30
0.000000
  1
 [72.5mm]
  0
POINT
  5
1606
  8
DEFPOINTS
  6
BYBLOCK
 62
     0
 10
5.315014
 20
2.792559
 30
0.0
  0
POINT
  5
1607
  8
DEFPOINTS
  6
BYBLOCK
 62
     0
 10
2.460014
 20
2.713859
 30
0.0
  0
POINT
  5
1608
  8
DEFPOINTS
  6
BYBLOCK
 62
     0
 10
2.460014
 20
0.718779
 30
0.0
  0
ENDBLK
  5
1609
  8
0
  0
BLOCK
  8
0
  2
*D25
 70
     1
 10
0.0
 20
0.0
 30
0.0
  3
*D25
  1

  0
LINE
  5
15F3
  8
0
  6
BYBLOCK
 62
     0
 10
5.560014
 20
2.262559
 30
0.0
 11
5.560014
 21
-0.195332
 31
0.0
  0
LINE
  5
15F4
  8
0
  6
BYBLOCK
 62
     0
 10
2.215014
 20
2.262559
 30
0.0
 11
2.215014
 21
-0.195332
 31
0.0
  0
LINE
  5
15F5
  8
0
  6
BYBLOCK
 62
     0
 10
5.380014
 20
-0.015332
 30
0.0
 11
4.543054
 21
-0.015332
 31
0.0
  0
LINE
  5
15F6
  8
0
  6
BYBLOCK
 62
     0
 10
2.395014
 20
-0.015332
 30
0.0
 11
3.467221
 21
-0.015332
 31
0.0
  0
SOLID
  5
15F7
  8
0
  6
BYBLOCK
 62
     0
 10
5.380014
 20
0.014668
 30
0.0
 11
5.380014
 21
-0.045332
 31
0.0
 12
5.560014
 22
-0.015332
 32
0.0
 13
5.560014
 23
-0.015332
 33
0.0
  0
SOLID
  5
15F8
  8
0
  6
BYBLOCK
 62
     0
 10
2.395014
 20
0.014668
 30
0.0
 11
2.395014
 21
-0.045332
 31
0.0
 12
2.215014
 22
-0.015332
 32
0.0
 13
2.215014
 23
-0.015332
 33
0.0
  0
TEXT
  8
0
  40
0.125
  5
1760
  62
0
  72
0
  71
0
 10
3.75514
 20
-0.236582
 30
0.000000
  1
 3.35"
  0
TEXT
  8
0
  40
0.125
  5
1761
  62
0
  72
0
  71
0
 10
3.75514
 20
-0.399082
 30
0.000000
  1
 [85.0mm]
  0
POINT
  5
15FA
  8
DEFPOINTS
  6
BYBLOCK
 62
     0
 10
5.560014
 20
2.325059
 30
0.0
  0
POINT
  5
15FB
  8
DEFPOINTS
  6
BYBLOCK
 62
     0
 10
2.215014
 20
2.325059
 30
0.0
  0
POINT
  5
15FC
  8
DEFPOINTS
  6
BYBLOCK
 62
     0
 10
2.215014
 20
-0.015332
 30
0.0
  0
ENDBLK
  5
15FD
  8
0
  0
BLOCK
  8
0
  2
*D26
 70
     1
 10
0.0
 20
0.0
 30
0.0
  3
*D26
  1

  0
LINE
  5
1621
  8
0
  6
BYBLOCK
 62
     0
 10
4.641567
 20
2.803554
 30
0.0
 11
4.37961
 21
3.165369
 31
0.0
  0
LINE
  5
1622
  8
0
  6
BYBLOCK
 62
     0
 10
4.37961
 20
3.165369
 30
0.0
 11
4.19961
 21
3.165369
 31
0.0
  0
SOLID
  5
1623
  8
0
  6
BYBLOCK
 62
     0
 10
4.665866
 20
2.821148
 30
0.0
 11
4.617267
 21
2.785961
 31
0.0
 12
4.747126
 22
2.657756
 32
0.0
 13
4.747126
 23
2.657756
 33
0.0
  0
TEXT
  8
0
  40
0.125
  5
1762
  62
0
  72
0
  71
0
 10
3.40128
 20
2.94412
 30
0.000000
  1
 R0.30"
  0
TEXT
  8
0
  40
0.125
  5
1763
  62
0
  72
0
  71
0
 10
3.40128
 20
2.78162
 30
0.000000
  1
 [R7.5mm]
  0
POINT
  5
1625
  8
DEFPOINTS
  6
BYBLOCK
 62
     0
 10
4.747126
 20
2.657756
 30
0.0
  0
POINT
  5
1626
  8
DEFPOINTS
  6
BYBLOCK
 62
     0
 10
4.920284
 20
2.418589
 30
0.0
  0
ENDBLK
  5
1627
  8
0
  0
BLOCK
  8
0
  2
*D27
 70
     1
 10
0.0
 20
0.0
 30
0.0
  3
*D27
  1

  0
LINE
  5
164B
  8
0
  6
BYBLOCK
 62
     0
 10
2.489914
 20
8.953209
 30
0.0
 11
2.489914
 21
10.76106
 31
0.0
  0
LINE
  5
164C
  8
0
  6
BYBLOCK
 62
     0
 10
5.285114
 20
8.953209
 30
0.0
 11
5.285114
 21
10.76106
 31
0.0
  0
LINE
  5
164D
  8
0
  6
BYBLOCK
 62
     0
 10
2.669914
 20
10.58106
 30
0.0
 11
3.436069
 21
10.58106
 31
0.0
  0
LINE
  5
164E
  8
0
  6
BYBLOCK
 62
     0
 10
5.105114
 20
10.58106
 30
0.0
 11
4.470236
 21
10.58106
 31
0.0
  0
SOLID
  5
164F
  8
0
  6
BYBLOCK
 62
     0
 10
2.669914
 20
10.61106
 30
0.0
 11
2.669914
 21
10.55106
 31
0.0
 12
2.489914
 22
10.58106
 32
0.0
 13
2.489914
 23
10.58106
 33
0.0
  0
SOLID
  5
1650
  8
0
  6
BYBLOCK
 62
     0
 10
5.105114
 20
10.61106
 30
0.0
 11
5.105114
 21
10.55106
 31
0.0
 12
5.285114
 22
10.58106
 32
0.0
 13
5.285114
 23
10.58106
 33
0.0
  0
TEXT
  8
0
  40
0.125
  5
1764
  62
0
  72
0
  71
0
 10
3.70315
 20
10.3598
 30
0.000000
  1
 2.80"
  0
TEXT
  8
0
  40
0.125
  5
1765
  62
0
  72
0
  71
0
 10
3.70315
 20
10.1973
 30
0.000000
  1
 [71.0mm]
  0
POINT
  5
1652
  8
DEFPOINTS
  6
BYBLOCK
 62
     0
 10
2.489914
 20
8.890709
 30
0.0
  0
POINT
  5
1653
  8
DEFPOINTS
  6
BYBLOCK
 62
     0
 10
5.285114
 20
8.890709
 30
0.0
  0
POINT
  5
1654
  8
DEFPOINTS
  6
BYBLOCK
 62
     0
 10
5.285114
 20
10.58106
 30
0.0
  0
ENDBLK
  5
1655
  8
0
  0
BLOCK
  8
0
  2
*D28
 70
     1
 10
0.0
 20
0.0
 30
0.0
  3
*D28
  1

  0
LINE
  5
1665
  8
0
  6
BYBLOCK
 62
     0
 10
3.887514
 20
8.766859
 30
0.0
 11
3.887514
 21
9.930895
 31
0.0
  0
LINE
  5
1666
  8
0
  6
BYBLOCK
 62
     0
 10
4.823514
 20
8.766859
 30
0.0
 11
4.823514
 21
9.930895
 31
0.0
  0
LINE
  5
1667
  8
0
  6
BYBLOCK
 62
     0
 10
3.707514
 20
9.750895
 30
0.0
 11
3.527514
 21
9.750895
 31
0.0
  0
LINE
  5
1668
  8
0
  6
BYBLOCK
 62
     0
 10
5.003514
 20
9.750895
 30
0.0
 11
5.680363
 21
9.750895
 31
0.0
  0
SOLID
  5
1669
  8
0
  6
BYBLOCK
 62
     0
 10
3.707514
 20
9.780895
 30
0.0
 11
3.707514
 21
9.720895
 31
0.0
 12
3.887514
 22
9.750895
 32
0.0
 13
3.887514
 23
9.750895
 33
0.0
  0
SOLID
  5
166A
  8
0
  6
BYBLOCK
 62
     0
 10
5.003514
 20
9.780895
 30
0.0
 11
5.003514
 21
9.720895
 31
0.0
 12
4.823514
 22
9.750895
 32
0.0
 13
4.823514
 23
9.750895
 33
0.0
  0
TEXT
  8
0
  40
0.125
  5
1766
  62
0
  72
0
  71
0
 10
5.97870
 20
9.52965
 30
0.000000
  1
 0.94"
  0
TEXT
  8
0
  40
0.125
  5
1767
  62
0
  72
0
  71
0
 10
5.97870
 20
9.36715
 30
0.000000
  1
 [23.8mm]
  0
POINT
  5
166C
  8
DEFPOINTS
  6
BYBLOCK
 62
     0
 10
3.887514
 20
8.704359
 30
0.0
  0
POINT
  5
166D
  8
DEFPOINTS
  6
BYBLOCK
 62
     0
 10
4.823514
 20
8.704359
 30
0.0
  0
POINT
  5
166E
  8
DEFPOINTS
  6
BYBLOCK
 62
     0
 10
4.823514
 20
9.750895
 30
0.0
  0
ENDBLK
  5
166F
  8
0
  0
BLOCK
  8
0
  2
*D29
 70
     1
 10
0.0
 20
0.0
 30
0.0
  3
*D29
  1

  0
LINE
  5
167F
  8
0
  6
BYBLOCK
 62
     0
 10
3.887514
 20
8.766859
 30
0.0
 11
3.887514
 21
10.066988
 31
0.0
  0
LINE
  5
1680
  8
0
  6
BYBLOCK
 62
     0
 10
3.307514
 20
8.766859
 30
0.0
 11
3.307514
 21
10.066988
 31
0.0
  0
LINE
  5
1681
  8
0
  6
BYBLOCK
 62
     0
 10
4.067514
 20
9.886988
 30
0.0
 11
4.247514
 21
9.886988
 31
0.0
  0
LINE
  5
1682
  8
0
  6
BYBLOCK
 62
     0
 10
3.127514
 20
9.886988
 30
0.0
 11
2.395873
 21
9.886988
 31
0.0
  0
SOLID
  5
1683
  8
0
  6
BYBLOCK
 62
     0
 10
4.067514
 20
9.916988
 30
0.0
 11
4.067514
 21
9.856988
 31
0.0
 12
3.887514
 22
9.886988
 32
0.0
 13
3.887514
 23
9.886988
 33
0.0
  0
SOLID
  5
1684
  8
0
  6
BYBLOCK
 62
     0
 10
3.127514
 20
9.916988
 30
0.0
 11
3.127514
 21
9.856988
 31
0.0
 12
3.307514
 22
9.886988
 32
0.0
 13
3.307514
 23
9.886988
 33
0.0
  0
TEXT
  8
0
  40
0.125
  5
1768
  62
0
  72
0
  71
0
 10
1.61837
 20
9.66574
 30
0.000000
  1
 0.58"
  0
TEXT
  8
0
  40
0.125
  5
1769
  62
0
  72
0
  71
0
 10
1.61837
 20
9.50324
 30
0.000000
  1
 [14.7mm]
  0
POINT
  5
1686
  8
DEFPOINTS
  6
BYBLOCK
 62
     0
 10
3.887514
 20
8.704359
 30
0.0
  0
POINT
  5
1687
  8
DEFPOINTS
  6
BYBLOCK
 62
     0
 10
3.307514
 20
8.704359
 30
0.0
  0
POINT
  5
1688
  8
DEFPOINTS
  6
BYBLOCK
 62
     0
 10
3.307514
 20
9.886988
 30
0.0
  0
ENDBLK
  5
1689
  8
0
  0
BLOCK
  8
0
  2
*D30
 70
     1
 10
0.0
 20
0.0
 30
0.0
  3
*D30
  1

  0
LINE
  5
1695
  8
0
  6
BYBLOCK
 62
     0
 10
2.260931
 20
9.01118
 30
0.0
 11
0.517051
 21
9.928658
 31
0.0
  0
LINE
  5
1696
  8
0
  6
BYBLOCK
 62
     0
 10
0.517051
 20
9.928658
 30
0.0
 11
0.337051
 21
9.928658
 31
0.0
  0
SOLID
  5
1697
  8
0
  6
BYBLOCK
 62
     0
 10
2.2749
 20
9.03773
 30
0.0
 11
2.246963
 21
8.98463
 31
0.0
 12
2.42023
 22
8.927371
 32
0.0
 13
2.42023
 23
8.927371
 33
0.0
  0
TEXT
  8
0
  40
0.125
  5
176A
  62
0
  72
0
  71
0
 10
-0.450866
 20
9.70741
 30
0.000000
  1
 %%c0.16"
  0
TEXT
  8
0
  40
0.125
  5
176B
  62
0
  72
0
  71
0
 10
-0.450866
 20
9.54491
 30
0.000000
  1
 [%%c4.0mm]
  0
POINT
  5
1699
  8
DEFPOINTS
  6
BYBLOCK
 62
     0
 10
2.42023
 20
8.927371
 30
0.0
  0
POINT
  5
169A
  8
DEFPOINTS
  6
BYBLOCK
 62
     0
 10
2.559599
 20
8.854048
 30
0.0
  0
ENDBLK
  5
169B
  8
0
  0
ENDSEC
  0
SECTION
  2
ENTITIES
  0
LINE
  5
1173
  8
0
 10
2.215014
 20
2.325059
 30
0.0
 11
2.215014
 21
8.940659
 31
0.0
  0
LINE
  5
1174
  8
0
 10
2.451214
 20
9.176859
 30
0.0
 11
5.323814
 21
9.176859
 31
0.0
  0
LINE
  5
1175
  8
0
 10
5.560014
 20
8.940659
 30
0.0
 11
5.560014
 21
2.325059
 31
0.0
  0
LINE
  5
1176
  8
0
 10
5.323814
 20
2.088859
 30
0.0
 11
2.451214
 21
2.088859
 31
0.0
  0
ARC
  5
1177
  8
0
 10
5.323814
 20
2.325059
 30
0.0
 40
0.2362
 50
270.0
 51
0.0
  0
ARC
  5
1178
  8
0
 10
5.323814
 20
8.940659
 30
0.0
 40
0.2362
 50
0.0
 51
90.0
  0
ARC
  5
1179
  8
0
 10
2.451214
 20
8.940659
 30
0.0
 40
0.2362
 50
90.0
 51
180.0
  0
ARC
  5
117A
  8
0
 10
2.451214
 20
2.325059
 30
0.0
 40
0.2362
 50
180.0
 51
270.0
  0
POLYLINE
  5
11A2
  8
0
 66
     1
 10
0.0
 20
0.0
 30
0.0
 70
     1
  0
VERTEX
  5
16B3
  8
0
 10
4.981904
 20
8.931859
 30
0.0
 42
-0.389179
  0
VERTEX
  5
16B4
  8
0
 10
5.099576
 20
8.823921
 30
0.0
 42
0.364561
  0
VERTEX
  5
16B5
  8
0
 10
5.207076
 20
8.716421
 30
0.0
 42
-0.389179
  0
VERTEX
  5
16B6
  8
0
 10
5.315014
 20
8.598749
 30
0.0
  0
VERTEX
  5
16B7
  8
0
 10
5.315014
 20
2.792559
 30
0.0
 42
-0.414214
  0
VERTEX
  5
16B8
  8
0
 10
5.236314
 20
2.713859
 30
0.0
  0
VERTEX
  5
16B9
  8
0
 10
4.920284
 20
2.713859
 30
0.0
 42
0.414214
  0
VERTEX
  5
16BA
  8
0
 10
4.625014
 20
2.418589
 30
0.0
  0
VERTEX
  5
16BB
  8
0
 10
4.625014
 20
2.412559
 30
0.0
 42
-0.414214
  0
VERTEX
  5
16BC
  8
0
 10
4.546314
 20
2.333859
 30
0.0
  0
VERTEX
  5
16BD
  8
0
 10
2.793124
 20
2.333859
 30
0.0
 42
-0.389179
  0
VERTEX
  5
16BE
  8
0
 10
2.675453
 20
2.441798
 30
0.0
 42
0.364561
  0
VERTEX
  5
16BF
  8
0
 10
2.567953
 20
2.549298
 30
0.0
 42
-0.389179
  0
VERTEX
  5
16C0
  8
0
 10
2.460014
 20
2.666969
 30
0.0
  0
VERTEX
  5
16C1
  8
0
 10
2.460014
 20
8.473159
 30
0.0
 42
-0.414214
  0
VERTEX
  5
16C2
  8
0
 10
2.538714
 20
8.551859
 30
0.0
  0
VERTEX
  5
16C3
  8
0
 10
2.854744
 20
8.551859
 30
0.0
 42
0.414214
  0
VERTEX
  5
16C4
  8
0
 10
3.150014
 20
8.847129
 30
0.0
  0
VERTEX
  5
16C5
  8
0
 10
3.150014
 20
8.853159
 30
0.0
 42
-0.414214
  0
VERTEX
  5
16C6
  8
0
 10
3.228714
 20
8.931859
 30
0.0
  0
SEQEND
  5
16C7
  8
0
  0
POLYLINE
  5
11A3
  8
0
 66
     1
 10
0.0
 20
0.0
 30
0.0
 70
     1
  0
VERTEX
  5
16C8
  8
0
 10
4.981904
 20
8.981859
 30
0.0
 42
-0.389179
  0
VERTEX
  5
16C9
  8
0
 10
5.14939
 20
8.828226
 30
0.0
 42
0.364561
  0
VERTEX
  5
16CA
  8
0
 10
5.211381
 20
8.766235
 30
0.0
 42
-0.389179
  0
VERTEX
  5
16CB
  8
0
 10
5.365014
 20
8.598749
 30
0.0
  0
VERTEX
  5
16CC
  8
0
 10
5.365014
 20
2.792559
 30
0.0
 42
-0.414214
  0
VERTEX
  5
16CD
  8
0
 10
5.236314
 20
2.663859
 30
0.0
  0
VERTEX
  5
16CE
  8
0
 10
4.920284
 20
2.663859
 30
0.0
 42
0.414214
  0
VERTEX
  5
16CF
  8
0
 10
4.675014
 20
2.418589
 30
0.0
  0
VERTEX
  5
16D0
  8
0
 10
4.675014
 20
2.412559
 30
0.0
 42
-0.414214
  0
VERTEX
  5
16D1
  8
0
 10
4.546314
 20
2.283859
 30
0.0
  0
VERTEX
  5
16D2
  8
0
 10
2.793124
 20
2.283859
 30
0.0
 42
-0.389179
  0
VERTEX
  5
16D3
  8
0
 10
2.625639
 20
2.437492
 30
0.0
 42
0.364561
  0
VERTEX
  5
16D4
  8
0
 10
2.563647
 20
2.499484
 30
0.0
 42
-0.389179
  0
VERTEX
  5
16D5
  8
0
 10
2.410014
 20
2.666969
 30
0.0
  0
VERTEX
  5
16D6
  8
0
 10
2.410014
 20
8.473159
 30
0.0
 42
-0.414214
  0
VERTEX
  5
16D7
  8
0
 10
2.538714
 20
8.601859
 30
0.0
  0
VERTEX
  5
16D8
  8
0
 10
2.854744
 20
8.601859
 30
0.0
 42
0.414214
  0
VERTEX
  5
16D9
  8
0
 10
3.100014
 20
8.847129
 30
0.0
  0
VERTEX
  5
16DA
  8
0
 10
3.100014
 20
8.853159
 30
0.0
 42
-0.414214
  0
VERTEX
  5
16DB
  8
0
 10
3.228714
 20
8.981859
 30
0.0
  0
SEQEND
  5
16DC
  8
0
  0
POLYLINE
  5
11A4
  8
0
 66
     1
 10
0.0
 20
0.0
 30
0.0
 70
     1
  0
VERTEX
  5
16DD
  8
0
 10
4.981904
 20
9.031859
 30
0.0
 42
-0.389179
  0
VERTEX
  5
16DE
  8
0
 10
5.199204
 20
8.832532
 30
0.0
 42
0.364561
  0
VERTEX
  5
16DF
  8
0
 10
5.215687
 20
8.816049
 30
0.0
 42
-0.389179
  0
VERTEX
  5
16E0
  8
0
 10
5.415014
 20
8.598749
 30
0.0
  0
VERTEX
  5
16E1
  8
0
 10
5.415014
 20
2.792559
 30
0.0
 42
-0.414214
  0
VERTEX
  5
16E2
  8
0
 10
5.236314
 20
2.613859
 30
0.0
  0
VERTEX
  5
16E3
  8
0
 10
4.920284
 20
2.613859
 30
0.0
 42
0.414214
  0
VERTEX
  5
16E4
  8
0
 10
4.725014
 20
2.418589
 30
0.0
  0
VERTEX
  5
16E5
  8
0
 10
4.725014
 20
2.412559
 30
0.0
 42
-0.414214
  0
VERTEX
  5
16E6
  8
0
 10
4.546314
 20
2.233859
 30
0.0
  0
VERTEX
  5
16E7
  8
0
 10
2.793124
 20
2.233859
 30
0.0
 42
-0.389179
  0
VERTEX
  5
16E8
  8
0
 10
2.575825
 20
2.433187
 30
0.0
 42
0.364561
  0
VERTEX
  5
16E9
  8
0
 10
2.559341
 20
2.44967
 30
0.0
 42
-0.389179
  0
VERTEX
  5
16EA
  8
0
 10
2.360014
 20
2.666969
 30
0.0
  0
VERTEX
  5
16EB
  8
0
 10
2.360014
 20
8.473159
 30
0.0
 42
-0.414214
  0
VERTEX
  5
16EC
  8
0
 10
2.538714
 20
8.651859
 30
0.0
  0
VERTEX
  5
16ED
  8
0
 10
2.854744
 20
8.651859
 30
0.0
 42
0.414214
  0
VERTEX
  5
16EE
  8
0
 10
3.050014
 20
8.847129
 30
0.0
  0
VERTEX
  5
16EF
  8
0
 10
3.050014
 20
8.853159
 30
0.0
 42
-0.414214
  0
VERTEX
  5
16F0
  8
0
 10
3.228714
 20
9.031859
 30
0.0
  0
SEQEND
  5
16F1
  8
0
  0
ARC
  5
11A5
  8
0
 10
5.323814
 20
2.325059
 30
0.0
 40
0.0912
 50
270.0
 51
0.0
  0
LINE
  5
11A6
  8
0
 10
5.323814
 20
2.233859
 30
0.0
 11
4.546314
 21
2.233859
 31
0.0
  0
LINE
  5
11A7
  8
0
 10
5.415014
 20
2.325059
 30
0.0
 11
5.415014
 21
2.792559
 31
0.0
  0
ARC
  5
11A9
  8
0
 10
2.451214
 20
2.325059
 30
0.0
 40
0.0912
 50
180.0
 51
270.0
  0
LINE
  5
11AA
  8
0
 10
2.360014
 20
2.325059
 30
0.0
 11
2.360014
 21
2.666969
 31
0.0
  0
LINE
  5
11AB
  8
0
 10
2.451214
 20
2.233859
 30
0.0
 11
2.793124
 21
2.233859
 31
0.0
  0
ARC
  5
11AC
  8
0
 10
2.451214
 20
8.940659
 30
0.0
 40
0.0912
 50
90.0
 51
180.0
  0
LINE
  5
11AD
  8
0
 10
2.360014
 20
8.940659
 30
0.0
 11
2.360014
 21
8.473159
 31
0.0
  0
LINE
  5
11AE
  8
0
 10
2.451214
 20
9.031859
 30
0.0
 11
3.228714
 21
9.031859
 31
0.0
  0
ARC
  5
11AF
  8
0
 10
5.323814
 20
8.940659
 30
0.0
 40
0.0912
 50
0.0
 51
90.0
  0
LINE
  5
11B0
  8
0
 10
5.415014
 20
8.940659
 30
0.0
 11
5.415014
 21
8.598749
 31
0.0
  0
LINE
  5
11B1
  8
0
 10
5.323814
 20
9.031859
 30
0.0
 11
4.981904
 21
9.031859
 31
0.0
  0
CIRCLE
  5
11C1
  8
0
 10
2.489914
 20
8.890709
 30
0.0
 40
0.07874
  0
CIRCLE
  5
11C2
  8
0
 10
5.285114
 20
8.890709
 30
0.0
 40
0.07874
  0
CIRCLE
  5
11C3
  8
0
 10
2.489914
 20
2.375009
 30
0.0
 40
0.07874
  0
CIRCLE
  5
11C4
  8
0
 10
5.285114
 20
2.375009
 30
0.0
 40
0.07874
  0
CIRCLE
  5
11CA
  8
0
 10
4.920284
 20
2.438859
 30
0.0
 40
0.175
  0
CIRCLE
  5
11CB
  8
0
 10
4.920284
 20
2.438859
 30
0.0
 40
0.0935
  0
CIRCLE
  5
11CC
  8
0
 10
2.854744
 20
8.826859
 30
0.0
 40
0.175
  0
CIRCLE
  5
11CD
  8
0
 10
2.854744
 20
8.826859
 30
0.0
 40
0.0935
  0
LINE
  5
11DD
  8
0
 10
4.920284
 20
2.713859
 30
0.0
 11
2.460014
 21
2.713859
 31
0.0
  0
LINE
  5
11DE
  8
0
 10
2.854744
 20
8.551859
 30
0.0
 11
5.315014
 21
8.551859
 31
0.0
  0
LINE
  5
11DF
  8
0
 10
5.118214
 20
8.551859
 30
0.0
 11
5.118214
 21
8.473169
 31
0.0
  0
LINE
  5
11E0
  8
0
 10
5.236324
 20
8.355059
 30
0.0
 11
5.315014
 21
8.355059
 31
0.0
  0
ARC
  5
11E4
  8
0
 10
5.236324
 20
8.473169
 30
0.0
 40
0.11811
 50
180.0
 51
270.0
  0
ARC
  5
11EA
  8
0
 10
2.538704
 20
2.792549
 30
0.0
 40
0.11811
 50
0.0
 51
90.0
  0
LINE
  5
11EB
  8
0
 10
2.656814
 20
2.792549
 30
0.0
 11
2.656814
 21
2.713859
 31
0.0
  0
LINE
  5
11EC
  8
0
 10
2.538704
 20
2.910659
 30
0.0
 11
2.460014
 21
2.910659
 31
0.0
  0
CIRCLE
  5
11ED
  8
0
 10
3.887514
 20
8.704359
 30
0.0
 40
0.0725
  0
CIRCLE
  5
11F1
  8
0
 10
3.887514
 20
2.561359
 30
0.0
 40
0.0725
  0
CIRCLE
  5
1200
  8
0
 10
2.951514
 20
2.561359
 30
0.0
 40
0.0725
  0
CIRCLE
  5
1202
  8
0
 10
4.823514
 20
8.704359
 30
0.0
 40
0.0725
  0
CIRCLE
  5
1203
  8
0
 10
3.307514
 20
8.704359
 30
0.0
 40
0.0725
  0
CIRCLE
  5
1204
  8
0
 10
4.467514
 20
2.561359
 30
0.0
 40
0.0725
  0
CIRCLE
  5
1207
  8
0
 10
5.098014
 20
3.516859
 30
0.0
 40
0.07
  0
ARC
  5
1208
  8
0
 10
5.098014
 20
3.516859
 30
0.0
 40
0.155
 50
90.0
 51
270.0
  0
LINE
  5
1209
  8
0
 10
5.098014
 20
3.671859
 30
0.0
 11
5.315014
 21
3.671859
 31
0.0
  0
LINE
  5
120A
  8
0
 10
5.098014
 20
3.361859
 30
0.0
 11
5.315014
 21
3.361859
 31
0.0
  0
CIRCLE
  5
120D
  8
0
 10
2.677014
 20
7.748859
 30
0.0
 40
0.07
  0
ARC
  5
120E
  8
0
 10
2.677014
 20
7.748859
 30
0.0
 40
0.155
 50
270.0
 51
90.0
  0
LINE
  5
120F
  8
0
 10
2.677014
 20
7.593859
 30
0.0
 11
2.460014
 21
7.593859
 31
0.0
  0
LINE
  5
1210
  8
0
 10
2.677014
 20
7.903859
 30
0.0
 11
2.460014
 21
7.903859
 31
0.0
  0
LINE
  5
1215
  8
0
 10
8.43193
 20
9.176859
 30
0.0
 11
8.43193
 21
5.632859
 31
0.0
  0
LINE
  5
1217
  8
0
 10
8.67193
 20
5.632859
 30
0.0
 11
8.67193
 21
9.176859
 31
0.0
  0
LINE
  5
1218
  8
0
 10
8.43193
 20
9.176859
 30
0.0
 11
8.67193
 21
9.176859
 31
0.0
  0
LINE
  5
1219
  8
0
 10
8.32693
 20
9.031859
 30
0.0
 11
8.43193
 21
9.031859
 31
0.0
  0
LINE
  5
121C
  8
0
 10
8.32693
 20
5.632859
 30
0.0
 11
8.32693
 21
9.031859
 31
0.0
  0
LINE
  5
1220
  8
0
 10
9.53393
 20
5.632859
 30
0.0
 11
9.53393
 21
9.065859
 31
0.0
  0
LINE
  5
1221
  8
0
 10
9.53393
 20
9.065859
 30
0.0
 11
8.67193
 21
9.080359
 31
0.0
  0
LINE
  5
1222
  8
HIDDEN
 10
8.32693
 20
8.551859
 30
0.0
 11
9.39193
 21
8.551859
 31
0.0
  0
LINE
  5
1223
  8
HIDDEN
 10
8.32693
 20
8.981859
 30
0.0
 11
9.15493
 21
8.981859
 31
0.0
  0
LINE
  5
1225
  8
HIDDEN
 10
9.39193
 20
5.632859
 30
0.0
 11
9.39193
 21
8.551859
 31
0.0
  0
LINE
  5
1226
  8
HIDDEN
 10
9.15493
 20
8.551859
 30
0.0
 11
9.15493
 21
8.981859
 31
0.0
  0
LINE
  5
1227
  8
HIDDEN
 10
9.15493
 20
8.631859
 30
0.0
 11
9.39193
 21
8.631859
 31
0.0
  0
LINE
  5
1228
  8
HIDDEN
 10
9.15493
 20
8.776859
 30
0.0
 11
9.39193
 21
8.776859
 31
0.0
  0
LINE
  5
1229
  8
HIDDEN
 10
9.39193
 20
8.631859
 30
0.0
 11
9.39193
 21
8.776859
 31
0.0
  0
LINE
  5
122A
  8
HIDDEN
 10
8.43193
 20
8.969449
 30
0.0
 11
9.53393
 21
8.969449
 31
0.0
  0
LINE
  5
122B
  8
HIDDEN
 10
8.43193
 20
8.811969
 30
0.0
 11
9.53393
 21
8.811969
 31
0.0
  0
LINE
  5
122C
  8
HIDDEN
 10
9.15493
 20
7.903859
 30
0.0
 11
9.15493
 21
7.593859
 31
0.0
  0
LINE
  5
122D
  8
HIDDEN
 10
9.15493
 20
7.903859
 30
0.0
 11
9.39193
 21
7.903859
 31
0.0
  0
LINE
  5
122E
  8
HIDDEN
 10
9.15493
 20
7.593859
 30
0.0
 11
9.39193
 21
7.593859
 31
0.0
  0
LINE
  5
122F
  8
HIDDEN
 10
9.15493
 20
7.818859
 30
0.0
 11
9.39193
 21
7.818859
 31
0.0
  0
LINE
  5
1230
  8
HIDDEN
 10
9.15493
 20
7.678859
 30
0.0
 11
9.39193
 21
7.678859
 31
0.0
  0
LINE
  5
1231
  8
0
 10
9.53393
 20
5.632859
 30
0.0
 11
9.53393
 21
2.199859
 31
0.0
  0
LINE
  5
1232
  8
HIDDEN
 10
9.39193
 20
5.632859
 30
0.0
 11
9.39193
 21
2.713859
 31
0.0
  0
LINE
  5
1233
  8
0
 10
8.32693
 20
5.632859
 30
0.0
 11
8.32693
 21
2.233859
 31
0.0
  0
LINE
  5
1234
  8
0
 10
8.43193
 20
2.088859
 30
0.0
 11
8.43193
 21
5.632859
 31
0.0
  0
LINE
  5
1235
  8
0
 10
8.67193
 20
5.632859
 30
0.0
 11
8.67193
 21
2.088859
 31
0.0
  0
LINE
  5
1236
  8
HIDDEN
 10
9.15493
 20
2.713859
 30
0.0
 11
9.15493
 21
2.283859
 31
0.0
  0
LINE
  5
1237
  8
HIDDEN
 10
8.43193
 20
2.453749
 30
0.0
 11
9.53393
 21
2.453749
 31
0.0
  0
LINE
  5
1238
  8
HIDDEN
 10
8.32693
 20
2.713859
 30
0.0
 11
9.39193
 21
2.713859
 31
0.0
  0
LINE
  5
1239
  8
HIDDEN
 10
9.15493
 20
3.361859
 30
0.0
 11
9.39193
 21
3.361859
 31
0.0
  0
LINE
  5
123A
  8
HIDDEN
 10
9.15493
 20
3.446859
 30
0.0
 11
9.39193
 21
3.446859
 31
0.0
  0
LINE
  5
123B
  8
HIDDEN
 10
9.15493
 20
3.586859
 30
0.0
 11
9.39193
 21
3.586859
 31
0.0
  0
LINE
  5
123C
  8
HIDDEN
 10
9.15493
 20
3.671859
 30
0.0
 11
9.39193
 21
3.671859
 31
0.0
  0
LINE
  5
123D
  8
HIDDEN
 10
9.15493
 20
3.361859
 30
0.0
 11
9.15493
 21
3.671859
 31
0.0
  0
LINE
  5
123E
  8
HIDDEN
 10
9.15493
 20
2.633859
 30
0.0
 11
9.39193
 21
2.633859
 31
0.0
  0
LINE
  5
123F
  8
HIDDEN
 10
9.15493
 20
2.488859
 30
0.0
 11
9.39193
 21
2.488859
 31
0.0
  0
LINE
  5
1240
  8
HIDDEN
 10
9.39193
 20
2.633859
 30
0.0
 11
9.39193
 21
2.488859
 31
0.0
  0
LINE
  5
1241
  8
HIDDEN
 10
8.43193
 20
2.296269
 30
0.0
 11
9.53393
 21
2.296269
 31
0.0
  0
LINE
  5
1242
  8
HIDDEN
 10
8.32693
 20
2.283859
 30
0.0
 11
9.15493
 21
2.283859
 31
0.0
  0
LINE
  5
1243
  8
0
 10
9.53393
 20
2.199859
 30
0.0
 11
8.67193
 21
2.185359
 31
0.0
  0
LINE
  5
1244
  8
0
 10
8.32693
 20
2.233859
 30
0.0
 11
8.43193
 21
2.233859
 31
0.0
  0
LINE
  5
1245
  8
0
 10
8.43193
 20
2.088859
 30
0.0
 11
8.67193
 21
2.088859
 31
0.0
  0
LINE
  5
1247
  8
0
 10
-1.261019
 20
5.632859
 30
0.0
 11
-1.261019
 21
2.088859
 31
0.0
  0
LINE
  5
1248
  8
0
 10
-1.021019
 20
2.088859
 30
0.0
 11
-1.021019
 21
5.632859
 31
0.0
  0
LINE
  5
1249
  8
0
 10
-0.916019
 20
5.632859
 30
0.0
 11
-0.916019
 21
2.233859
 31
0.0
  0
LINE
  5
124A
  8
HIDDEN
 10
-1.981019
 20
5.632859
 30
0.0
 11
-1.981019
 21
2.713859
 31
0.0
  0
LINE
  5
124B
  8
0
 10
-2.123019
 20
5.632859
 30
0.0
 11
-2.123019
 21
2.199859
 31
0.0
  0
LINE
  5
124C
  8
0
 10
-2.123019
 20
2.199859
 30
0.0
 11
-1.261019
 21
2.185359
 31
0.0
  0
LINE
  5
124D
  8
HIDDEN
 10
-0.916019
 20
2.283859
 30
0.0
 11
-1.744019
 21
2.283859
 31
0.0
  0
LINE
  5
124E
  8
HIDDEN
 10
-1.021019
 20
2.296269
 30
0.0
 11
-2.123019
 21
2.296269
 31
0.0
  0
LINE
  5
124F
  8
HIDDEN
 10
-0.916019
 20
2.713859
 30
0.0
 11
-1.981019
 21
2.713859
 31
0.0
  0
LINE
  5
1250
  8
HIDDEN
 10
-1.021019
 20
2.453749
 30
0.0
 11
-2.123019
 21
2.453749
 31
0.0
  0
LINE
  5
1251
  8
0
 10
-0.916019
 20
2.233859
 30
0.0
 11
-1.021019
 21
2.233859
 31
0.0
  0
LINE
  5
1252
  8
0
 10
-1.021019
 20
2.088859
 30
0.0
 11
-1.261019
 21
2.088859
 31
0.0
  0
LINE
  5
1253
  8
HIDDEN
 10
-1.744019
 20
2.713859
 30
0.0
 11
-1.744019
 21
2.283859
 31
0.0
  0
LINE
  5
1254
  8
HIDDEN
 10
-1.744019
 20
2.488859
 30
0.0
 11
-1.981019
 21
2.488859
 31
0.0
  0
LINE
  5
1255
  8
HIDDEN
 10
-1.744019
 20
2.633859
 30
0.0
 11
-1.981019
 21
2.633859
 31
0.0
  0
LINE
  5
1256
  8
HIDDEN
 10
-1.981019
 20
2.633859
 30
0.0
 11
-1.981019
 21
2.488859
 31
0.0
  0
LINE
  5
1257
  8
HIDDEN
 10
-1.744019
 20
3.671859
 30
0.0
 11
-1.981019
 21
3.671859
 31
0.0
  0
LINE
  5
1258
  8
HIDDEN
 10
-1.744019
 20
3.586859
 30
0.0
 11
-1.981019
 21
3.586859
 31
0.0
  0
LINE
  5
1259
  8
HIDDEN
 10
-1.744019
 20
3.446859
 30
0.0
 11
-1.981019
 21
3.446859
 31
0.0
  0
LINE
  5
125A
  8
HIDDEN
 10
-1.744019
 20
3.361859
 30
0.0
 11
-1.981019
 21
3.361859
 31
0.0
  0
LINE
  5
125B
  8
HIDDEN
 10
-1.744019
 20
3.361859
 30
0.0
 11
-1.744019
 21
3.671859
 31
0.0
  0
LINE
  5
125C
  8
0
 10
-2.123019
 20
5.632859
 30
0.0
 11
-2.123019
 21
9.065859
 31
0.0
  0
LINE
  5
125D
  8
HIDDEN
 10
-1.981019
 20
5.632859
 30
0.0
 11
-1.981019
 21
8.551859
 31
0.0
  0
LINE
  5
125E
  8
0
 10
-0.916019
 20
5.632859
 30
0.0
 11
-0.916019
 21
9.031859
 31
0.0
  0
LINE
  5
125F
  8
0
 10
-1.021019
 20
9.176859
 30
0.0
 11
-1.021019
 21
5.632859
 31
0.0
  0
LINE
  5
1260
  8
0
 10
-1.261019
 20
5.632859
 30
0.0
 11
-1.261019
 21
9.176859
 31
0.0
  0
LINE
  5
1261
  8
HIDDEN
 10
-1.744019
 20
8.551859
 30
0.0
 11
-1.744019
 21
8.981859
 31
0.0
  0
LINE
  5
1262
  8
HIDDEN
 10
-1.021019
 20
8.811969
 30
0.0
 11
-2.123019
 21
8.811969
 31
0.0
  0
LINE
  5
1263
  8
HIDDEN
 10
-0.916019
 20
8.551859
 30
0.0
 11
-1.981019
 21
8.551859
 31
0.0
  0
LINE
  5
1264
  8
HIDDEN
 10
-1.744019
 20
7.903859
 30
0.0
 11
-1.981019
 21
7.903859
 31
0.0
  0
LINE
  5
1265
  8
HIDDEN
 10
-1.744019
 20
7.818859
 30
0.0
 11
-1.981019
 21
7.818859
 31
0.0
  0
LINE
  5
1266
  8
HIDDEN
 10
-1.744019
 20
7.678859
 30
0.0
 11
-1.981019
 21
7.678859
 31
0.0
  0
LINE
  5
1267
  8
HIDDEN
 10
-1.744019
 20
7.593859
 30
0.0
 11
-1.981019
 21
7.593859
 31
0.0
  0
LINE
  5
1268
  8
HIDDEN
 10
-1.744019
 20
7.903859
 30
0.0
 11
-1.744019
 21
7.593859
 31
0.0
  0
LINE
  5
1269
  8
HIDDEN
 10
-1.744019
 20
8.631859
 30
0.0
 11
-1.981019
 21
8.631859
 31
0.0
  0
LINE
  5
126A
  8
HIDDEN
 10
-1.744019
 20
8.776859
 30
0.0
 11
-1.981019
 21
8.776859
 31
0.0
  0
LINE
  5
126B
  8
HIDDEN
 10
-1.981019
 20
8.631859
 30
0.0
 11
-1.981019
 21
8.776859
 31
0.0
  0
LINE
  5
126C
  8
HIDDEN
 10
-1.021019
 20
8.969449
 30
0.0
 11
-2.123019
 21
8.969449
 31
0.0
  0
LINE
  5
126D
  8
HIDDEN
 10
-0.916019
 20
8.981859
 30
0.0
 11
-1.744019
 21
8.981859
 31
0.0
  0
LINE
  5
126E
  8
0
 10
-2.123019
 20
9.065859
 30
0.0
 11
-1.261019
 21
9.080359
 31
0.0
  0
LINE
  5
126F
  8
0
 10
-0.916019
 20
9.031859
 30
0.0
 11
-1.021019
 21
9.031859
 31
0.0
  0
LINE
  5
1270
  8
0
 10
-1.021019
 20
9.176859
 30
0.0
 11
-1.261019
 21
9.176859
 31
0.0
  0
LINE
  5
129B
  8
0
 10
3.887514
 20
11.675867
 30
0.0
 11
2.215014
 21
11.675867
 31
0.0
  0
LINE
  5
129C
  8
0
 10
2.215014
 20
11.435867
 30
0.0
 11
3.887514
 21
11.435867
 31
0.0
  0
LINE
  5
129D
  8
0
 10
3.887514
 20
11.330867
 30
0.0
 11
2.360014
 21
11.330867
 31
0.0
  0
LINE
  5
129E
  8
HIDDEN
 10
3.887514
 20
12.395867
 30
0.0
 11
2.460014
 21
12.395867
 31
0.0
  0
LINE
  5
129F
  8
0
 10
3.887514
 20
12.537867
 30
0.0
 11
2.326014
 21
12.537867
 31
0.0
  0
LINE
  5
12A0
  8
0
 10
2.215014
 20
11.435867
 30
0.0
 11
2.215014
 21
11.675867
 31
0.0
  0
LINE
  5
12A5
  8
0
 10
2.326014
 20
12.537867
 30
0.0
 11
2.311514
 21
11.675867
 31
0.0
  0
LINE
  5
12AA
  8
HIDDEN
 10
3.150014
 20
12.158867
 30
0.0
 11
3.887514
 21
12.158867
 31
0.0
  0
LINE
  5
12AF
  8
0
 10
2.360014
 20
11.330867
 30
0.0
 11
2.360014
 21
11.435867
 31
0.0
  0
LINE
  5
12C7
  8
HIDDEN
 10
3.150014
 20
11.330867
 30
0.0
 11
3.150014
 21
12.395867
 31
0.0
  0
LINE
  5
12CA
  8
HIDDEN
 10
2.460014
 20
11.330867
 30
0.0
 11
2.460014
 21
12.395867
 31
0.0
  0
LINE
  5
12CB
  8
HIDDEN
 10
2.411174
 20
11.435867
 30
0.0
 11
2.411174
 21
12.537867
 31
0.0
  0
LINE
  5
12CC
  8
HIDDEN
 10
2.568654
 20
11.435867
 30
0.0
 11
2.568654
 21
12.537867
 31
0.0
  0
LINE
  5
12CF
  8
HIDDEN
 10
3.380014
 20
12.158867
 30
0.0
 11
3.380014
 21
12.395867
 31
0.0
  0
LINE
  5
12D0
  8
HIDDEN
 10
3.235014
 20
12.158867
 30
0.0
 11
3.235014
 21
12.395867
 31
0.0
  0
LINE
  5
12D1
  8
HIDDEN
 10
3.815014
 20
12.158867
 30
0.0
 11
3.815014
 21
12.395867
 31
0.0
  0
LINE
  5
12D2
  8
HIDDEN
 10
2.761244
 20
12.135867
 30
0.0
 11
2.761244
 21
12.537867
 31
0.0
  0
LINE
  5
12D3
  8
HIDDEN
 10
2.948244
 20
12.135867
 30
0.0
 11
2.948244
 21
12.537867
 31
0.0
  0
LINE
  5
12D4
  8
HIDDEN
 10
2.679744
 20
11.435867
 30
0.0
 11
2.679744
 21
12.135867
 31
0.0
  0
LINE
  5
12D5
  8
HIDDEN
 10
3.029744
 20
11.435867
 30
0.0
 11
3.029744
 21
12.135867
 31
0.0
  0
LINE
  5
12D6
  8
HIDDEN
 10
3.029744
 20
12.135867
 30
0.0
 11
2.679744
 21
12.135867
 31
0.0
  0
LINE
  5
12D7
  8
HIDDEN
 10
5.061744
 20
12.158867
 30
0.0
 11
3.887514
 21
12.158867
 31
0.0
  0
LINE
  5
12D8
  8
HIDDEN
 10
3.887514
 20
12.395867
 30
0.0
 11
5.315014
 21
12.395867
 31
0.0
  0
LINE
  5
12D9
  8
0
 10
3.887514
 20
12.537867
 30
0.0
 11
5.449014
 21
12.537867
 31
0.0
  0
LINE
  5
12DA
  8
0
 10
3.887514
 20
11.675867
 30
0.0
 11
5.560014
 21
11.675867
 31
0.0
  0
LINE
  5
12DB
  8
0
 10
5.560014
 20
11.435867
 30
0.0
 11
3.887514
 21
11.435867
 31
0.0
  0
LINE
  5
12DC
  8
0
 10
3.887514
 20
11.330867
 30
0.0
 11
5.415014
 21
11.330867
 31
0.0
  0
LINE
  5
12DF
  8
HIDDEN
 10
5.315014
 20
11.330867
 30
0.0
 11
5.315014
 21
12.395867
 31
0.0
  0
LINE
  5
12E0
  8
HIDDEN
 10
5.206374
 20
11.435867
 30
0.0
 11
5.206374
 21
12.537867
 31
0.0
  0
LINE
  5
12E1
  8
HIDDEN
 10
5.363854
 20
11.435867
 30
0.0
 11
5.363854
 21
12.537867
 31
0.0
  0
LINE
  5
12E3
  8
0
 10
5.449014
 20
12.537867
 30
0.0
 11
5.463514
 21
11.675867
 31
0.0
  0
LINE
  5
12E4
  8
0
 10
5.560014
 20
11.435867
 30
0.0
 11
5.560014
 21
11.675867
 31
0.0
  0
LINE
  5
12E5
  8
0
 10
5.415014
 20
11.330867
 30
0.0
 11
5.415014
 21
11.435867
 31
0.0
  0
LINE
  5
12EB
  8
HIDDEN
 10
3.960014
 20
12.158867
 30
0.0
 11
3.960014
 21
12.395867
 31
0.0
  0
LINE
  5
12EC
  8
HIDDEN
 10
5.061744
 20
11.330867
 30
0.0
 11
5.061744
 21
12.158867
 31
0.0
  0
LINE
  5
12ED
  8
HIDDEN
 10
4.751014
 20
12.158867
 30
0.0
 11
4.751014
 21
12.395867
 31
0.0
  0
LINE
  5
12EE
  8
HIDDEN
 10
4.896014
 20
12.158867
 30
0.0
 11
4.896014
 21
12.395867
 31
0.0
  0
LINE
  5
1314
  8
HIDDEN
 10
3.887514
 20
-1.983908
 30
0.0
 11
2.460014
 21
-1.983908
 31
0.0
  0
LINE
  5
1315
  8
0
 10
3.887514
 20
-2.125908
 30
0.0
 11
2.326014
 21
-2.125908
 31
0.0
  0
LINE
  5
1316
  8
0
 10
3.887514
 20
-1.263908
 30
0.0
 11
2.215014
 21
-1.263908
 31
0.0
  0
LINE
  5
1317
  8
0
 10
2.215014
 20
-1.023908
 30
0.0
 11
3.887514
 21
-1.023908
 31
0.0
  0
LINE
  5
1318
  8
0
 10
3.887514
 20
-0.918908
 30
0.0
 11
2.360014
 21
-0.918908
 31
0.0
  0
LINE
  5
1319
  8
HIDDEN
 10
4.826784
 20
-1.723908
 30
0.0
 11
4.826784
 21
-2.125908
 31
0.0
  0
LINE
  5
131A
  8
HIDDEN
 10
5.013784
 20
-1.723908
 30
0.0
 11
5.013784
 21
-2.125908
 31
0.0
  0
LINE
  5
131B
  8
0
 10
5.449014
 20
-2.125908
 30
0.0
 11
5.463514
 21
-1.263908
 31
0.0
  0
LINE
  5
131C
  8
HIDDEN
 10
5.363854
 20
-1.023908
 30
0.0
 11
5.363854
 21
-2.125908
 31
0.0
  0
LINE
  5
131D
  8
HIDDEN
 10
5.206374
 20
-1.023908
 30
0.0
 11
5.206374
 21
-2.125908
 31
0.0
  0
LINE
  5
131E
  8
0
 10
3.887514
 20
-2.125908
 30
0.0
 11
5.449014
 21
-2.125908
 31
0.0
  0
LINE
  5
131F
  8
0
 10
3.887514
 20
-0.918908
 30
0.0
 11
5.415014
 21
-0.918908
 31
0.0
  0
LINE
  5
1320
  8
0
 10
5.560014
 20
-1.023908
 30
0.0
 11
3.887514
 21
-1.023908
 31
0.0
  0
LINE
  5
1321
  8
0
 10
3.887514
 20
-1.263908
 30
0.0
 11
5.560014
 21
-1.263908
 31
0.0
  0
LINE
  5
1322
  8
HIDDEN
 10
3.887514
 20
-1.983908
 30
0.0
 11
5.315014
 21
-1.983908
 31
0.0
  0
LINE
  5
1323
  8
HIDDEN
 10
4.625014
 20
-1.746908
 30
0.0
 11
3.887514
 21
-1.746908
 31
0.0
  0
LINE
  5
1324
  8
0
 10
5.560014
 20
-1.023908
 30
0.0
 11
5.560014
 21
-1.263908
 31
0.0
  0
LINE
  5
1325
  8
HIDDEN
 10
4.625014
 20
-0.918908
 30
0.0
 11
4.625014
 21
-1.983908
 31
0.0
  0
LINE
  5
1326
  8
HIDDEN
 10
5.315014
 20
-0.918908
 30
0.0
 11
5.315014
 21
-1.983908
 31
0.0
  0
LINE
  5
1327
  8
HIDDEN
 10
4.745284
 20
-1.023908
 30
0.0
 11
4.745284
 21
-1.723908
 31
0.0
  0
LINE
  5
1328
  8
HIDDEN
 10
5.095284
 20
-1.023908
 30
0.0
 11
5.095284
 21
-1.723908
 31
0.0
  0
LINE
  5
1329
  8
HIDDEN
 10
4.745284
 20
-1.723908
 30
0.0
 11
5.095284
 21
-1.723908
 31
0.0
  0
LINE
  5
132A
  8
0
 10
5.415014
 20
-0.918908
 30
0.0
 11
5.415014
 21
-1.023908
 31
0.0
  0
LINE
  5
132B
  8
HIDDEN
 10
2.713285
 20
-1.746908
 30
0.0
 11
3.887514
 21
-1.746908
 31
0.0
  0
LINE
  5
132C
  8
HIDDEN
 10
4.540014
 20
-1.746908
 30
0.0
 11
4.540014
 21
-1.983908
 31
0.0
  0
LINE
  5
132D
  8
HIDDEN
 10
4.395014
 20
-1.746908
 30
0.0
 11
4.395014
 21
-1.983908
 31
0.0
  0
LINE
  5
132E
  8
HIDDEN
 10
3.960014
 20
-1.746908
 30
0.0
 11
3.960014
 21
-1.983908
 31
0.0
  0
LINE
  5
132F
  8
HIDDEN
 10
3.815014
 20
-1.746908
 30
0.0
 11
3.815014
 21
-1.983908
 31
0.0
  0
LINE
  5
1330
  8
HIDDEN
 10
2.713285
 20
-0.918908
 30
0.0
 11
2.713285
 21
-1.746908
 31
0.0
  0
LINE
  5
1331
  8
HIDDEN
 10
3.024014
 20
-1.746908
 30
0.0
 11
3.024014
 21
-1.983908
 31
0.0
  0
LINE
  5
1332
  8
HIDDEN
 10
2.879014
 20
-1.746908
 30
0.0
 11
2.879014
 21
-1.983908
 31
0.0
  0
LINE
  5
1333
  8
HIDDEN
 10
2.568654
 20
-1.023908
 30
0.0
 11
2.568654
 21
-2.125908
 31
0.0
  0
LINE
  5
1334
  8
HIDDEN
 10
2.411174
 20
-1.023908
 30
0.0
 11
2.411174
 21
-2.125908
 31
0.0
  0
LINE
  5
1335
  8
0
 10
2.326014
 20
-2.125908
 30
0.0
 11
2.311514
 21
-1.263908
 31
0.0
  0
LINE
  5
1336
  8
HIDDEN
 10
2.460014
 20
-0.918908
 30
0.0
 11
2.460014
 21
-1.983908
 31
0.0
  0
LINE
  5
1337
  8
0
 10
2.360014
 20
-0.918908
 30
0.0
 11
2.360014
 21
-1.023908
 31
0.0
  0
LINE
  5
1338
  8
0
 10
2.215014
 20
-1.023908
 30
0.0
 11
2.215014
 21
-1.263908
 31
0.0
  0
ARC
  5
133A
  8
0
 10
13.107249
 20
3.516859
 30
0.0
 40
0.155
 50
270.0
 51
90.0
  0
CIRCLE
  5
133B
  8
0
 10
13.107249
 20
3.516859
 30
0.0
 40
0.07
  0
LINE
  5
1343
  8
0
 10
12.881449
 20
2.088859
 30
0.0
 11
15.754049
 21
2.088859
 31
0.0
  0
LINE
  5
1344
  8
0
 10
15.754049
 20
9.176859
 30
0.0
 11
12.881449
 21
9.176859
 31
0.0
  0
LINE
  5
1345
  8
0
 10
15.990249
 20
2.325059
 30
0.0
 11
15.990249
 21
8.940659
 31
0.0
  0
LINE
  5
1346
  8
0
 10
15.223359
 20
2.713859
 30
0.0
 11
15.700249
 21
2.713859
 31
0.0
  0
ARC
  5
1347
  8
0
 10
15.754049
 20
2.325059
 30
0.0
 40
0.2362
 50
270.0
 51
0.0
  0
CIRCLE
  5
1348
  8
0
 10
15.715349
 20
2.375009
 30
0.0
 40
0.07874
  0
ARC
  5
134C
  8
0
 10
15.666559
 20
2.792549
 30
0.0
 40
0.11811
 50
90.0
 51
180.0
  0
LINE
  5
134D
  8
0
 10
15.548449
 20
2.792549
 30
0.0
 11
15.548449
 21
2.713859
 31
0.0
  0
LINE
  5
134E
  8
0
 10
15.666559
 20
2.910659
 30
0.0
 11
15.700249
 21
2.910659
 31
0.0
  0
CIRCLE
  5
134F
  8
0
 10
15.253749
 20
2.561359
 30
0.0
 40
0.0725
  0
CIRCLE
  5
1354
  8
0
 10
15.715349
 20
8.890709
 30
0.0
 40
0.07874
  0
ARC
  5
1357
  8
0
 10
15.528249
 20
7.748859
 30
0.0
 40
0.155
 50
90.0
 51
270.0
  0
CIRCLE
  5
1358
  8
0
 10
15.528249
 20
7.748859
 30
0.0
 40
0.07
  0
LINE
  5
1359
  8
0
 10
15.528249
 20
7.593859
 30
0.0
 11
15.700249
 21
7.593859
 31
0.0
  0
LINE
  5
135A
  8
0
 10
15.528249
 20
7.903859
 30
0.0
 11
15.700249
 21
7.903859
 31
0.0
  0
ARC
  5
135C
  8
0
 10
15.754049
 20
8.940659
 30
0.0
 40
0.2362
 50
0.0
 51
90.0
  0
LINE
  5
1361
  8
0
 10
12.645249
 20
8.940659
 30
0.0
 11
12.645249
 21
2.325059
 31
0.0
  0
CIRCLE
  5
1362
  8
0
 10
12.920149
 20
2.375009
 30
0.0
 40
0.07874
  0
ARC
  5
1364
  8
0
 10
12.881449
 20
2.325059
 30
0.0
 40
0.2362
 50
180.0
 51
270.0
  0
LINE
  5
1366
  8
0
 10
13.107249
 20
3.361859
 30
0.0
 11
12.935249
 21
3.361859
 31
0.0
  0
LINE
  5
1367
  8
0
 10
13.107249
 20
3.671859
 30
0.0
 11
12.935249
 21
3.671859
 31
0.0
  0
CIRCLE
  5
1368
  8
0
 10
12.920149
 20
8.890709
 30
0.0
 40
0.07874
  0
ARC
  5
136D
  8
0
 10
12.881449
 20
8.940659
 30
0.0
 40
0.2362
 50
90.0
 51
180.0
  0
POLYLINE
  5
136F
  8
0
 66
     1
 10
0.0
 20
0.0
 30
0.0
 70
     1
  0
VERTEX
  5
16F2
  8
0
 10
13.223359
 20
8.886859
 30
0.0
 42
0.389179
  0
VERTEX
  5
16F3
  8
0
 10
13.15052
 20
8.820045
 30
0.0
 42
-0.364561
  0
VERTEX
  5
16F4
  8
0
 10
13.002063
 20
8.671588
 30
0.0
 42
0.389179
  0
VERTEX
  5
16F5
  8
0
 10
12.935249
 20
8.598749
 30
0.0
  0
VERTEX
  5
16F6
  8
0
 10
12.935249
 20
2.792559
 30
0.0
 42
0.414214
  0
VERTEX
  5
16F7
  8
0
 10
12.968949
 20
2.758859
 30
0.0
  0
VERTEX
  5
16F8
  8
0
 10
13.284979
 20
2.758859
 30
0.0
 42
-0.414214
  0
VERTEX
  5
16F9
  8
0
 10
13.625249
 20
2.418589
 30
0.0
  0
VERTEX
  5
16FA
  8
0
 10
13.625249
 20
2.412559
 30
0.0
 42
0.414214
  0
VERTEX
  5
16FB
  8
0
 10
13.658949
 20
2.378859
 30
0.0
  0
VERTEX
  5
16FC
  8
0
 10
15.412139
 20
2.378859
 30
0.0
 42
0.389179
  0
VERTEX
  5
16FD
  8
0
 10
15.484977
 20
2.445673
 30
0.0
 42
-0.364561
  0
VERTEX
  5
16FE
  8
0
 10
15.633435
 20
2.594131
 30
0.0
 42
0.389179
  0
VERTEX
  5
16FF
  8
0
 10
15.700249
 20
2.666969
 30
0.0
  0
VERTEX
  5
1700
  8
0
 10
15.700249
 20
8.473159
 30
0.0
 42
0.414214
  0
VERTEX
  5
1701
  8
0
 10
15.666549
 20
8.506859
 30
0.0
  0
VERTEX
  5
1702
  8
0
 10
15.350519
 20
8.506859
 30
0.0
 42
-0.414214
  0
VERTEX
  5
1703
  8
0
 10
15.010249
 20
8.847129
 30
0.0
  0
VERTEX
  5
1704
  8
0
 10
15.010249
 20
8.853159
 30
0.0
 42
0.414214
  0
VERTEX
  5
1705
  8
0
 10
14.976549
 20
8.886859
 30
0.0
  0
SEQEND
  5
1706
  8
0
  0
POLYLINE
  5
1371
  8
0
 66
     1
 10
0.0
 20
0.0
 30
0.0
 70
     1
  0
VERTEX
  5
1707
  8
0
 10
13.223359
 20
8.963859
 30
0.0
 42
0.389179
  0
VERTEX
  5
1708
  8
0
 10
13.073806
 20
8.826676
 30
0.0
 42
-0.364561
  0
VERTEX
  5
1709
  8
0
 10
12.995432
 20
8.748302
 30
0.0
 42
0.389179
  0
VERTEX
  5
170A
  8
0
 10
12.858249
 20
8.598749
 30
0.0
  0
VERTEX
  5
170B
  8
0
 10
12.858249
 20
2.792559
 30
0.0
 42
0.414214
  0
VERTEX
  5
170C
  8
0
 10
12.968949
 20
2.681859
 30
0.0
  0
VERTEX
  5
170D
  8
0
 10
13.284979
 20
2.681859
 30
0.0
 42
-0.414214
  0
VERTEX
  5
170E
  8
0
 10
13.548249
 20
2.418589
 30
0.0
  0
VERTEX
  5
170F
  8
0
 10
13.548249
 20
2.412559
 30
0.0
 42
0.414214
  0
VERTEX
  5
1710
  8
0
 10
13.658949
 20
2.301859
 30
0.0
  0
VERTEX
  5
1711
  8
0
 10
15.412139
 20
2.301859
 30
0.0
 42
0.389179
  0
VERTEX
  5
1712
  8
0
 10
15.561691
 20
2.439042
 30
0.0
 42
-0.364561
  0
VERTEX
  5
1713
  8
0
 10
15.640066
 20
2.517417
 30
0.0
 42
0.389179
  0
VERTEX
  5
1714
  8
0
 10
15.777249
 20
2.666969
 30
0.0
  0
VERTEX
  5
1715
  8
0
 10
15.777249
 20
8.473159
 30
0.0
 42
0.414214
  0
VERTEX
  5
1716
  8
0
 10
15.666549
 20
8.583859
 30
0.0
  0
VERTEX
  5
1717
  8
0
 10
15.350519
 20
8.583859
 30
0.0
 42
-0.414214
  0
VERTEX
  5
1718
  8
0
 10
15.087249
 20
8.847129
 30
0.0
  0
VERTEX
  5
1719
  8
0
 10
15.087249
 20
8.853159
 30
0.0
 42
0.414214
  0
VERTEX
  5
171A
  8
0
 10
14.976549
 20
8.963859
 30
0.0
  0
SEQEND
  5
171B
  8
0
  0
POLYLINE
  5
1372
  8
0
 66
     1
 10
0.0
 20
0.0
 30
0.0
  0
VERTEX
  5
171C
  8
0
 10
15.74665
 20
2.44726
 30
0.0
 42
0.274769
  0
VERTEX
  5
171D
  8
0
 10
15.877249
 20
2.666969
 30
0.0
  0
VERTEX
  5
171E
  8
0
 10
15.877249
 20
8.473159
 30
0.0
 42
0.414214
  0
VERTEX
  5
171F
  8
0
 10
15.666549
 20
8.683859
 30
0.0
  0
VERTEX
  5
1720
  8
0
 10
15.350519
 20
8.683859
 30
0.0
 42
-0.414214
  0
VERTEX
  5
1721
  8
0
 10
15.187249
 20
8.847129
 30
0.0
  0
VERTEX
  5
1722
  8
0
 10
15.187249
 20
8.853159
 30
0.0
 42
0.414214
  0
VERTEX
  5
1723
  8
0
 10
14.976549
 20
9.063859
 30
0.0
  0
VERTEX
  5
1724
  8
0
 10
13.223359
 20
9.063859
 30
0.0
 42
0.296183
  0
VERTEX
  5
1725
  8
0
 10
12.994883
 20
8.915504
 30
0.0
 42
0.296183
  0
SEQEND
  5
1726
  8
0
  0
POLYLINE
  5
138F
  8
0
 66
     1
 10
0.0
 20
0.0
 30
0.0
  0
VERTEX
  5
1727
  8
0
 10
12.888847
 20
8.818458
 30
0.0
 42
0.274769
  0
VERTEX
  5
1728
  8
0
 10
12.758249
 20
8.598749
 30
0.0
  0
VERTEX
  5
1729
  8
0
 10
12.758249
 20
2.792559
 30
0.0
 42
0.414214
  0
VERTEX
  5
172A
  8
0
 10
12.968949
 20
2.581859
 30
0.0
  0
VERTEX
  5
172B
  8
0
 10
13.284979
 20
2.581859
 30
0.0
 42
-0.414214
  0
VERTEX
  5
172C
  8
0
 10
13.448249
 20
2.418589
 30
0.0
  0
VERTEX
  5
172D
  8
0
 10
13.448249
 20
2.412559
 30
0.0
 42
0.414214
  0
VERTEX
  5
172E
  8
0
 10
13.658949
 20
2.201859
 30
0.0
  0
VERTEX
  5
172F
  8
0
 10
15.412139
 20
2.201859
 30
0.0
 42
0.296183
  0
VERTEX
  5
1730
  8
0
 10
15.640614
 20
2.350215
 30
0.0
  0
SEQEND
  5
1731
  8
0
  0
CIRCLE
  5
1390
  8
0
 10
15.715349
 20
8.890709
 30
0.0
 40
0.15
  0
CIRCLE
  5
1391
  8
0
 10
12.920149
 20
2.375009
 30
0.0
 40
0.15
  0
LINE
  5
1392
  8
0
 10
15.105249
 20
2.378859
 30
0.0
 11
15.105249
 21
2.595749
 31
0.0
  0
ARC
  5
1393
  8
0
 10
15.223359
 20
2.595749
 30
0.0
 40
0.11811
 50
90.0
 51
180.0
  0
LINE
  5
1395
  8
0
 10
18.712907
 20
2.088859
 30
0.0
 11
18.712907
 21
9.176859
 31
0.0
  0
LINE
  5
1397
  8
0
 10
19.302907
 20
2.188859
 30
0.0
 11
19.302907
 21
9.076859
 31
0.0
  0
LINE
  5
1398
  8
0
 10
18.712907
 20
2.088859
 30
0.0
 11
19.202907
 21
2.088859
 31
0.0
  0
LINE
  5
1399
  8
0
 10
18.712907
 20
9.176859
 30
0.0
 11
19.202907
 21
9.176859
 31
0.0
  0
LINE
  5
139A
  8
0
 10
19.302907
 20
9.076859
 30
0.0
 11
19.202907
 21
9.176859
 31
0.0
  0
LINE
  5
139B
  8
0
 10
19.302907
 20
2.188859
 30
0.0
 11
19.202907
 21
2.088859
 31
0.0
  0
LINE
  5
139C
  8
0
 10
18.524907
 20
2.301859
 30
0.0
 11
18.712907
 21
2.301859
 31
0.0
  0
LINE
  5
139D
  8
0
 10
18.524907
 20
8.963859
 30
0.0
 11
18.712907
 21
8.963859
 31
0.0
  0
LINE
  5
139E
  8
0
 10
18.524907
 20
2.301859
 30
0.0
 11
18.524907
 21
8.963859
 31
0.0
  0
LINE
  5
13A3
  8
HIDDEN
 10
18.524907
 20
8.886859
 30
0.0
 11
19.174907
 21
8.886859
 31
0.0
  0
LINE
  5
13A4
  8
HIDDEN
 10
18.524907
 20
2.378859
 30
0.0
 11
19.174907
 21
2.378859
 31
0.0
  0
LINE
  5
13A5
  8
HIDDEN
 10
19.174907
 20
2.378859
 30
0.0
 11
19.174907
 21
8.886859
 31
0.0
  0
LINE
  5
13A6
  8
HIDDEN
 10
18.524907
 20
2.758859
 30
0.0
 11
19.174907
 21
2.758859
 31
0.0
  0
LINE
  5
13A7
  8
HIDDEN
 10
18.524907
 20
8.506859
 30
0.0
 11
19.174907
 21
8.506859
 31
0.0
  0
LINE
  5
13A8
  8
HIDDEN
 10
18.712907
 20
2.296269
 30
0.0
 11
19.172907
 21
2.296269
 31
0.0
  0
LINE
  5
13A9
  8
HIDDEN
 10
18.712907
 20
2.453749
 30
0.0
 11
19.172907
 21
2.453749
 31
0.0
  0
LINE
  5
13AA
  8
HIDDEN
 10
19.172907
 20
2.525009
 30
0.0
 11
19.302907
 21
2.525009
 31
0.0
  0
LINE
  5
13AB
  8
HIDDEN
 10
19.172907
 20
2.225009
 30
0.0
 11
19.302907
 21
2.225009
 31
0.0
  0
LINE
  5
13AD
  8
HIDDEN
 10
18.712907
 20
8.811969
 30
0.0
 11
19.172907
 21
8.811969
 31
0.0
  0
LINE
  5
13AE
  8
HIDDEN
 10
18.712907
 20
8.969449
 30
0.0
 11
19.172907
 21
8.969449
 31
0.0
  0
LINE
  5
13AF
  8
HIDDEN
 10
19.172907
 20
9.040709
 30
0.0
 11
19.302907
 21
9.040709
 31
0.0
  0
LINE
  5
13B0
  8
HIDDEN
 10
19.172907
 20
8.740709
 30
0.0
 11
19.302907
 21
8.740709
 31
0.0
  0
LINE
  5
13B1
  8
HIDDEN
 10
19.172907
 20
2.225009
 30
0.0
 11
19.174907
 21
2.525009
 31
0.0
  0
LINE
  5
13B2
  8
HIDDEN
 10
19.172907
 20
9.040709
 30
0.0
 11
19.172907
 21
8.740709
 31
0.0
  0
DIMENSION
  5
13C0
  8
DIMENSION
  2
*D2
 10
19.302907
 20
1.257669
 30
0.0
 11
17.59624
 21
1.257669
 31
0.0
 12
0.992027
 22
0.0
 32
0.0
 70
   128
  1
 <>\P[]
 13
18.712907
 23
2.088859
 33
0.0
 14
19.302907
 24
2.225009
 34
0.0
1001
ACAD
1000
DSTYLE
1002
{
1070
   288
1070
     1
1070
   140
1040
0.125
1070
    73
1070
     0
1070
     3
1000
"
1070
   287
1070
     0
1070
   271
1070
     2
1070
   141
1040
0.0
1070
     4
1000
mm
1070
   171
1070
     1
1070
   170
1070
     1
1002
}
  0
DIMENSION
  5
13CE
  8
DIMENSION
  2
*D3
 10
19.302907
 20
0.333678
 30
0.0
 11
17.397823
 21
0.333678
 31
0.0
 12
0.992027
 22
0.0
 32
0.0
 70
   128
  1
 <>\P[]
 13
18.524907
 23
2.301859
 33
0.0
 14
19.302907
 24
2.225009
 34
0.0
1001
ACAD
1000
DSTYLE
1002
{
1070
   288
1070
     1
1070
   140
1040
0.125
1070
    73
1070
     0
1070
     3
1000
"
1070
   287
1070
     0
1070
   271
1070
     2
1070
   141
1040
0.0
1070
     4
1000
mm
1070
   171
1070
     1
1070
   170
1070
     1
1002
}
  0
DIMENSION
  5
13F5
  8
DIMENSION
  2
*D4
 10
19.174907
 20
9.950229
 30
0.0
 11
17.397823
 21
9.950229
 31
0.0
 12
0.992027
 22
0.0
 32
0.0
 70
   128
  1
 <>\P[]
 13
18.524907
 23
8.963859
 33
0.0
 14
19.174907
 24
8.506859
 34
0.0
1001
ACAD
1000
DSTYLE
1002
{
1070
   288
1070
     1
1070
   140
1040
0.125
1070
    73
1070
     0
1070
     3
1000
"
1070
   287
1070
     0
1070
   271
1070
     2
1070
   141
1040
0.0
1070
     4
1000
mm
1070
   171
1070
     1
1070
   170
1070
     1
1002
}
  0
DIMENSION
  5
140F
  8
DIMENSION
  2
*D5
 10
15.461559
 20
1.438353
 30
0.0
 11
14.558046
 21
1.438353
 31
0.0
 70
   128
  1
 <>\P[]
 13
13.625249
 23
2.418589
 33
0.0
 14
15.461559
 24
2.398093
 34
0.0
1001
ACAD
1000
DSTYLE
1002
{
1070
   288
1070
     1
1070
   140
1040
0.125
1070
    73
1070
     0
1070
     3
1000
"
1070
   287
1070
     0
1070
   271
1070
     2
1070
   141
1040
0.0
1070
     4
1000
mm
1070
   171
1070
     1
1070
   170
1070
     1
1002
}
  0
DIMENSION
  5
141D
  8
DIMENSION
  2
*D6
 10
12.920149
 20
0.599372
 30
0.0
 11
14.364843
 21
0.599372
 31
0.0
 70
   128
  1
 <>\P[]
 13
15.715349
 23
2.375009
 33
0.0
 14
12.920149
 24
2.375009
 34
0.0
1001
ACAD
1000
DSTYLE
1002
{
1070
   288
1070
     1
1070
   140
1040
0.125
1070
    73
1070
     0
1070
     3
1000
"
1070
   287
1070
     0
1070
   271
1070
     2
1070
   141
1040
0.0
1070
     4
1000
mm
1070
   171
1070
     1
1070
   170
1070
     1
1002
}
  0
DIMENSION
  5
1443
  8
DIMENSION
  2
*D7
 10
12.935249
 20
9.8063
 30
0.0
 11
14.398443
 21
9.8063
 31
0.0
 70
   128
  1
 <>\P[]
 13
15.700249
 23
8.473159
 33
0.0
 14
12.935249
 24
8.598749
 34
0.0
1001
ACAD
1000
DSTYLE
1002
{
1070
   288
1070
     1
1070
   140
1040
0.125
1070
    73
1070
     0
1070
     3
1000
"
1070
   287
1070
     0
1070
   271
1070
     2
1070
   141
1040
0.0
1070
     4
1000
mm
1070
   171
1070
     1
1070
   170
1070
     1
1002
}
  0
DIMENSION
  5
1451
  8
DIMENSION
  2
*D8
 10
12.645249
 20
10.578163
 30
0.0
 11
14.406844
 21
10.578163
 31
0.0
 70
   128
  1
 <>\P[]
 13
15.990249
 23
8.940659
 33
0.0
 14
12.645249
 24
8.940659
 34
0.0
1001
ACAD
1000
DSTYLE
1002
{
1070
   288
1070
     1
1070
   140
1040
0.125
1070
    73
1070
     0
1070
     3
1000
"
1070
   287
1070
     0
1070
   271
1070
     2
1070
   141
1040
0.0
1070
     4
1000
mm
1070
   171
1070
     1
1070
   170
1070
     1
1002
}
  0
DIMENSION
  5
1477
  8
DIMENSION
  2
*D9
 10
16.657098
 20
2.378859
 30
0.0
 11
16.657098
 21
5.592322
 31
0.0
 70
   128
  1
 <>\P[]
 13
15.508534
 23
8.506859
 33
0.0
 14
15.412139
 24
2.378859
 34
0.0
 50
90.0
1001
ACAD
1000
DSTYLE
1002
{
1070
   288
1070
     1
1070
   140
1040
0.125
1070
    73
1070
     0
1070
     3
1000
"
1070
   287
1070
     0
1070
   271
1070
     2
1070
   141
1040
0.0
1070
     4
1000
mm
1070
   171
1070
     1
1070
   170
1070
     1
1002
}
  0
DIMENSION
  5
1485
  8
DIMENSION
  2
*D10
 10
17.378498
 20
2.375009
 30
0.0
 11
17.378498
 21
5.570489
 31
0.0
 70
   128
  1
 <>\P[]
 13
15.715349
 23
8.890709
 33
0.0
 14
15.715349
 24
2.375009
 34
0.0
 50
90.0
1001
ACAD
1000
DSTYLE
1002
{
1070
   288
1070
     1
1070
   140
1040
0.125
1070
    73
1070
     0
1070
     3
1000
"
1070
   287
1070
     0
1070
   271
1070
     2
1070
   141
1040
0.0
1070
     4
1000
mm
1070
   171
1070
     1
1070
   170
1070
     1
1002
}
  0
DIMENSION
  5
14A7
  8
DIMENSION
  2
*D11
 10
13.284979
 20
2.418589
 30
0.0
 11
14.65088
 21
3.255961
 31
0.0
 70
   132
  1
 <>\P[]
 15
13.491109
 25
2.689318
 35
0.0
 40
0.0
1001
ACAD
1000
DSTYLE
1002
{
1070
   288
1070
     1
1070
   140
1040
0.125
1070
    73
1070
     0
1070
     3
1000
"
1070
   287
1070
     0
1070
   271
1070
     2
1070
   141
1040
0.0
1070
     4
1000
mm
1070
   171
1070
     1
1070
   170
1070
     1
1002
}
  0
DIMENSION
  5
14B1
  8
DIMENSION
  2
*D12
 10
12.881449
 20
2.325059
 30
0.0
 11
11.478358
 21
1.05227
 31
0.0
 70
   132
  1
 <>\P[]
 15
12.769488
 25
2.11708
 35
0.0
 40
0.0
1001
ACAD
1000
DSTYLE
1002
{
1070
   288
1070
     1
1070
   140
1040
0.125
1070
    73
1070
     0
1070
     3
1000
"
1070
   287
1070
     0
1070
   271
1070
     2
1070
   141
1040
0.0
1070
     4
1000
mm
1070
   171
1070
     1
1070
   170
1070
     1
1002
}
  0
DIMENSION
  5
14CF
  8
DIMENSION
  2
*D13
 10
10.104003
 20
2.199859
 30
0.0
 11
10.104003
 21
5.639881
 31
0.0
 70
   128
  1
 <>\P[]
 13
9.53393
 23
9.065859
 33
0.0
 14
9.53393
 24
2.199859
 34
0.0
 50
90.0
1001
ACAD
1000
DSTYLE
1002
{
1070
   288
1070
     1
1070
   140
1040
0.125
1070
    73
1070
     0
1070
     3
1000
"
1070
   287
1070
     0
1070
   271
1070
     2
1070
   141
1040
0.0
1070
     4
1000
mm
1070
   171
1070
     1
1070
   170
1070
     1
1002
}
  0
DIMENSION
  5
14E9
  8
DIMENSION
  2
*D14
 10
9.39193
 20
9.759179
 30
0.0
 11
10.49818
 21
9.759179
 31
0.0
 70
   128
  1
 <>\P[]
 13
8.32693
 23
9.031859
 33
0.0
 14
9.39193
 24
8.551859
 34
0.0
1001
ACAD
1000
DSTYLE
1002
{
1070
   288
1070
     1
1070
   140
1040
0.125
1070
    73
1070
     0
1070
     3
1000
"
1070
   287
1070
     0
1070
   271
1070
     2
1070
   141
1040
0.0
1070
     4
1000
mm
1070
   171
1070
     1
1070
   170
1070
     1
1002
}
  0
DIMENSION
  5
14F7
  8
DIMENSION
  2
*D15
 10
9.53393
 20
0.748215
 30
0.0
 11
7.22068
 21
0.748215
 31
0.0
 70
   128
  1
 <>\P[]
 13
8.32693
 23
2.233859
 33
0.0
 14
9.53393
 24
2.199859
 34
0.0
1001
ACAD
1000
DSTYLE
1002
{
1070
   288
1070
     1
1070
   140
1040
0.125
1070
    73
1070
     0
1070
     3
1000
"
1070
   287
1070
     0
1070
   271
1070
     2
1070
   141
1040
0.0
1070
     4
1000
mm
1070
   171
1070
     1
1070
   170
1070
     1
1002
}
  0
DIMENSION
  5
1505
  8
DIMENSION
  2
*D16
 10
9.53393
 20
1.491978
 30
0.0
 11
7.336096
 21
1.491978
 31
0.0
 70
   128
  1
 <>\P[]
 13
8.43193
 23
2.088859
 33
0.0
 14
9.53393
 24
2.296269
 34
0.0
1001
ACAD
1000
DSTYLE
1002
{
1070
   288
1070
     1
1070
   140
1040
0.125
1070
    73
1070
     0
1070
     3
1000
"
1070
   287
1070
     0
1070
   271
1070
     2
1070
   141
1040
0.0
1070
     4
1000
mm
1070
   171
1070
     1
1070
   170
1070
     1
1002
}
  0
DIMENSION
  5
1537
  8
DIMENSION
  2
*D17
 10
5.449014
 20
13.173398
 30
0.0
 11
3.860442
 21
13.173398
 31
0.0
 12
-0.928108
 22
0.0
 32
0.0
 70
   128
  1
 <>\P[]
 13
2.326014
 23
12.537867
 33
0.0
 14
5.449014
 24
12.537867
 34
0.0
1001
ACAD
1000
DSTYLE
1002
{
1070
   288
1070
     1
1070
   140
1040
0.125
1070
    73
1070
     0
1070
     3
1000
"
1070
   287
1070
     0
1070
   271
1070
     2
1070
   141
1040
0.0
1070
     4
1000
mm
1070
   171
1070
     1
1070
   170
1070
     1
1002
}
  0
DIMENSION
  5
1551
  8
DIMENSION
  2
*D18
 10
6.067651
 20
8.890709
 30
0.0
 11
6.067651
 21
5.518727
 31
0.0
 12
-0.928108
 22
0.0
 32
0.0
 70
   128
  1
 <>\P[]
 13
5.285114
 23
2.375009
 33
0.0
 14
5.285114
 24
8.890709
 34
0.0
 50
90.0
1001
ACAD
1000
DSTYLE
1002
{
1070
   288
1070
     1
1070
   140
1040
0.125
1070
    73
1070
     0
1070
     3
1000
"
1070
   287
1070
     0
1070
   271
1070
     2
1070
   141
1040
0.0
1070
     4
1000
mm
1070
   171
1070
     1
1070
   170
1070
     1
1002
}
  0
DIMENSION
  5
155F
  8
DIMENSION
  2
*D19
 10
6.788217
 20
8.931859
 30
0.0
 11
6.788217
 21
5.518727
 31
0.0
 12
-0.928108
 22
0.0
 32
0.0
 70
   128
  1
 <>\P[]
 13
4.546314
 23
2.333859
 33
0.0
 14
4.981904
 24
8.931859
 34
0.0
 50
90.0
1001
ACAD
1000
DSTYLE
1002
{
1070
   288
1070
     1
1070
   140
1040
0.125
1070
    73
1070
     0
1070
     3
1000
"
1070
   287
1070
     0
1070
   271
1070
     2
1070
   141
1040
0.0
1070
     4
1000
mm
1070
   171
1070
     1
1070
   170
1070
     1
1002
}
  0
DIMENSION
  5
1585
  8
DIMENSION
  2
*D20
 10
1.609927
 20
2.58713
 30
0.0
 11
1.609927
 21
5.588429
 31
0.0
 70
   128
  1
 <>\P[]
 13
2.696729
 23
8.551859
 33
0.0
 14
2.491086
 24
2.58713
 34
0.0
 50
90.0
1001
ACAD
1000
DSTYLE
1002
{
1070
   288
1070
     1
1070
   140
1040
0.125
1070
    73
1070
     0
1070
     3
1000
"
1070
   287
1070
     0
1070
   271
1070
     2
1070
   141
1040
0.0
1070
     4
1000
mm
1070
   171
1070
     1
1070
   170
1070
     1
1002
}
  0
DIMENSION
  5
1593
  8
DIMENSION
  2
*D21
 10
0.917619
 20
2.561359
 30
0.0
 11
0.917619
 21
5.588429
 31
0.0
 70
   128
  1
 <>\P[]
 13
3.307514
 23
8.704359
 33
0.0
 14
2.951514
 24
2.561359
 34
0.0
 50
90.0
1001
ACAD
1000
DSTYLE
1002
{
1070
   288
1070
     1
1070
   140
1040
0.125
1070
    73
1070
     0
1070
     3
1000
"
1070
   287
1070
     0
1070
   271
1070
     2
1070
   141
1040
0.0
1070
     4
1000
mm
1070
   171
1070
     1
1070
   170
1070
     1
1002
}
  0
DIMENSION
  5
15A1
  8
DIMENSION
  2
*D22
 10
0.204332
 20
2.088859
 30
0.0
 11
0.204332
 21
5.588429
 31
0.0
 70
   128
  1
 <>\P[]
 13
2.451214
 23
9.176859
 33
0.0
 14
2.451214
 24
2.088859
 34
0.0
 50
90.0
1001
ACAD
1000
DSTYLE
1002
{
1070
   288
1070
     1
1070
   140
1040
0.125
1070
    73
1070
     0
1070
     3
1000
"
1070
   287
1070
     0
1070
   271
1070
     2
1070
   141
1040
0.0
1070
     4
1000
mm
1070
   171
1070
     1
1070
   170
1070
     1
1002
}
  0
DIMENSION
  5
15D3
  8
DIMENSION
  2
*D23
 10
2.713285
 20
1.499501
 30
0.0
 11
3.666797
 21
1.499501
 31
0.0
 70
   128
  1
 <>\P[]
 13
4.625014
 23
2.418589
 33
0.0
 14
2.713285
 24
2.364931
 34
0.0
1001
ACAD
1000
DSTYLE
1002
{
1070
   288
1070
     1
1070
   140
1040
0.125
1070
    73
1070
     0
1070
     3
1000
"
1070
   287
1070
     0
1070
   271
1070
     2
1070
   141
1040
0.0
1070
     4
1000
mm
1070
   171
1070
     1
1070
   170
1070
     1
1002
}
  0
DIMENSION
  5
15E3
  8
DIMENSION
  2
*D24
 10
2.460014
 20
0.718779
 30
0.0
 11
3.99347
 21
0.718779
 31
0.0
 70
   128
  1
 <>\P[]
 13
5.315014
 23
2.792559
 33
0.0
 14
2.460014
 24
2.713859
 34
0.0
1001
ACAD
1000
DSTYLE
1002
{
1070
   288
1070
     1
1070
   140
1040
0.125
1070
    73
1070
     0
1070
     3
1000
"
1070
   287
1070
     0
1070
   271
1070
     2
1070
   141
1040
0.0
1070
     4
1000
mm
1070
   171
1070
     1
1070
   170
1070
     1
1002
}
  0
DIMENSION
  5
15F1
  8
DIMENSION
  2
*D25
 10
2.215014
 20
-0.015332
 30
0.0
 11
4.005137
 21
-0.015332
 31
0.0
 70
   128
  1
 <>\P[]
 13
5.560014
 23
2.325059
 33
0.0
 14
2.215014
 24
2.325059
 34
0.0
1001
ACAD
1000
DSTYLE
1002
{
1070
   288
1070
     1
1070
   140
1040
0.125
1070
    73
1070
     0
1070
     3
1000
"
1070
   287
1070
     0
1070
   271
1070
     2
1070
   141
1040
0.0
1070
     4
1000
mm
1070
   171
1070
     1
1070
   170
1070
     1
1002
}
  0
DIMENSION
  5
161F
  8
DIMENSION
  2
*D26
 10
4.920284
 20
2.418589
 30
0.0
 11
3.651276
 21
3.165369
 31
0.0
 70
   132
  1
 <>\P[]
 15
4.747126
 25
2.657756
 35
0.0
 40
0.0
1001
ACAD
1000
DSTYLE
1002
{
1070
   288
1070
     1
1070
   140
1040
0.125
1070
    73
1070
     0
1070
     3
1000
"
1070
   287
1070
     0
1070
   271
1070
     2
1070
   141
1040
0.0
1070
     4
1000
mm
1070
   171
1070
     1
1070
   170
1070
     1
1002
}
  0
POLYLINE
  8
0
  5
176C
  66
     1
 10
0.000000
 20
0.000000
 30
0.000000
  70
     8
  0
VERTEX
  8
0
  5
176D
 10
4.82351
 20
8.63186
 30
0.000000
  70
    32
  0
VERTEX
  8
0
  5
176E
 10
4.54193
 20
8.02252
 30
0.000000
  70
    32
  0
VERTEX
  8
0
  5
176F
 10
4.36193
 20
8.02252
 30
0.000000
  70
    32
  0
SEQEND
  8
0
  5
1770
  0
TEXT
  8
0
  40
0.125
  5
1771
  72
0
  71
0
 10
4.02193
 20
7.80127
 30
0.000000
  1
M4 thread
  0
DIMENSION
  5
1649
  8
DIMENSION
  2
*D27
 10
5.285114
 20
10.58106
 30
0.0
 11
3.953153
 21
10.58106
 31
0.0
 70
   128
  1
 <>\P[]
 13
2.489914
 23
8.890709
 33
0.0
 14
5.285114
 24
8.890709
 34
0.0
1001
ACAD
1000
DSTYLE
1002
{
1070
   288
1070
     1
1070
   140
1040
0.125
1070
    73
1070
     0
1070
     3
1000
"
1070
   287
1070
     0
1070
   271
1070
     2
1070
   141
1040
0.0
1070
     4
1000
mm
1070
   171
1070
     1
1070
   170
1070
     1
1002
}
  0
DIMENSION
  5
1663
  8
DIMENSION
  2
*D28
 10
4.823514
 20
9.750895
 30
0.0
 11
6.228696
 21
9.750895
 31
0.0
 70
   128
  1
 <>\P[]
 13
3.887514
 23
8.704359
 33
0.0
 14
4.823514
 24
8.704359
 34
0.0
1001
ACAD
1000
DSTYLE
1002
{
1070
   288
1070
     1
1070
   140
1040
0.125
1070
    73
1070
     0
1070
     3
1000
"
1070
   287
1070
     0
1070
   271
1070
     2
1070
   141
1040
0.0
1070
     4
1000
mm
1070
   171
1070
     1
1070
   170
1070
     1
1002
}
  0
DIMENSION
  5
167D
  8
DIMENSION
  2
*D29
 10
3.307514
 20
9.886988
 30
0.0
 11
1.868373
 21
9.886988
 31
0.0
 70
   128
  1
 <>\P[]
 13
3.887514
 23
8.704359
 33
0.0
 14
3.307514
 24
8.704359
 34
0.0
1001
ACAD
1000
DSTYLE
1002
{
1070
   288
1070
     1
1070
   140
1040
0.125
1070
    73
1070
     0
1070
     3
1000
"
1070
   287
1070
     0
1070
   271
1070
     2
1070
   141
1040
0.0
1070
     4
1000
mm
1070
   171
1070
     1
1070
   170
1070
     1
1002
}
  0
DIMENSION
  5
1693
  8
DIMENSION
  2
*D30
 10
2.559599
 20
8.854048
 30
0.0
 11
-0.200866
 21
9.928658
 31
0.0
 70
   131
  1
 <>\P[]
 15
2.42023
 25
8.927371
 35
0.0
 40
0.0
1001
ACAD
1000
DSTYLE
1002
{
1070
   288
1070
     1
1070
   140
1040
0.125
1070
    73
1070
     0
1070
     3
1000
"
1070
   287
1070
     0
1070
   271
1070
     2
1070
   141
1040
0.0
1070
     4
1000
mm
1070
   171
1070
     1
1070
   170
1070
     1
1002
}
  0
TEXT
  5
169C
  8
TEXT
 10
1.630398
 20
-2.932254
 30
0.0
 40
0.2
  1
VIEW OF BOX (LID REMOVED)
  0
LINE
  5
169D
  8
TEXT
 10
6.600347
 20
-3.057393
 30
0.0
 11
1.463341
 21
-3.057393
 31
0.0
  0
TEXT
  5
169E
  8
TEXT
 10
14.647476
 20
-0.739071
 30
0.0
 40
0.2
  1
VIEW OF LID (INSIDE)
  0
LINE
  5
169F
  8
TEXT
 10
18.408687
 20
-0.828781
 30
0.0
 11
14.546429
 21
-0.828781
 31
0.0
  0
VIEWPORT
  5
86F
 67
     1
  8
0
 10
213.960567
 20
389.632508
 30
0.0
 40
559.308628
 41
320.602562
 68
     1
 69
     1
1001
ACAD
1000
MVIEW
1002
{
1070
    16
1010
0.0
1020
0.0
1030
0.0
1010
0.0
1020
0.0
1030
1.0
1040
0.0
1040
320.602562
1040
213.960567
1040
389.632508
1040
50.0
1040
0.0
1040
0.0
1070
     0
1070
   100
1070
     1
1070
     1
1070
     0
1070
     0
1070
     0
1070
     0
1040
0.0
1040
0.0
1040
0.0
1040
0.5
1040
0.5
1040
0.5
1040
0.5
1070
     0
1002
{
1002
}
1002
}
  0
POLYLINE
  5
10B8
 67
     1
  8
0
 62
     5
 66
     1
 10
0.0
 20
0.0
 30
0.0
 70
     1
  0
VERTEX
  5
16AE
 67
     1
  8
0
 62
     5
 10
409.219758
 20
231.692288
 30
0.0
  0
VERTEX
  5
16AF
 67
     1
  8
0
 62
     5
 10
409.219758
 20
526.965337
 30
0.0
  0
VERTEX
  5
16B0
 67
     1
  8
0
 62
     5
 10
18.697338
 20
526.965337
 30
0.0
  0
VERTEX
  5
16B1
 67
     1
  8
0
 62
     5
 10
18.697338
 20
231.692288
 30
0.0
  0
SEQEND
  5
16B2
 67
     1
  8
0
 62
     5
  0
LINE
  5
10B9
 67
     1
  8
0
 62
     5
 10
225.191454
 20
286.488785
 30
0.0
 11
409.219758
 21
286.488785
 31
0.0
  0
INSERT
  5
10BA
 67
     1
  8
DIM
 62
     6
  2
*X0
 10
4.409932
 20
217.404882
 30
0.0
 41
0.749995
 42
0.749995
 43
0.749995
1001
ACAD
1000
HATCH
1002
{
1070
    19
1000
ANSI31
1040
8.096197
1040
6.283185
1000
ASC_BOUNDS
1070
     4
1070
     1
1070
     3
1005
10BC
1005
10C5
1005
10BB
1070
     1
1070
    13
1005
10D0
1005
10C6
1005
10CA
1005
10C8
1005
10CB
1005
10CC
1005
10BB
1005
10CD
1005
10C4
1005
10D6
1005
10C3
1005
10C9
1005
10C7
1070
     1
1070
     3
1005
10C1
1005
10D1
1005
10CF
1070
     1
1070
    13
1005
10BE
1005
10BF
1005
10C0
1005
10D8
1005
10C1
1005
10CE
1005
10D4
1005
10D5
1005
10D2
1005
10D7
1005
10D3
1005
10BD
1005
10E2
1000
ASC_SEEDPOINT
1011
258.944194
1021
-1.952482E+143
1031
-3.037582E+082
1021
247.683175
1031
0.0
1002
}
  0
LINE
  5
10BB
 67
     1
  8
DIM
 62
     6
 10
255.12004
 20
238.976074
 30
0.0
 11
263.571791
 21
256.381392
 31
0.0
1001
ACAD
1000
ASC_BOUNDS
1002
{
1070
    19
1005
10BA
1005
0
1005
0
1005
10BA
1002
}
  0
LINE
  5
10BC
 67
     1
  8
DIM
 62
     6
 10
263.571791
 20
256.381392
 30
0.0
 11
258.672329
 21
256.381392
 31
0.0
1001
ACAD
1000
ASC_BOUNDS
1002
{
1070
    19
1005
10BA
1002
}
  0
LINE
  5
10BD
 67
     1
  8
DIM
 62
     6
 10
263.834646
 20
262.199896
 30
0.0
 11
258.672329
 21
262.199896
 31
0.0
1001
ACAD
1000
ASC_BOUNDS
1002
{
1070
    19
1005
10BA
1002
}
  0
LINE
  5
10BE
 67
     1
  8
DIM
 62
     6
 10
255.12004
 20
279.605214
 30
0.0
 11
263.834646
 21
279.605214
 31
0.0
1001
ACAD
1000
ASC_BOUNDS
1002
{
1070
    19
1005
10BA
1002
}
  0
LINE
  5
10BF
 67
     1
  8
DIM
 62
     6
 10
251.56775
 20
274.121472
 30
0.0
 11
255.12004
 21
279.605214
 31
0.0
1001
ACAD
1000
ASC_BOUNDS
1002
{
1070
    19
1005
10BA
1002
}
  0
LINE
  5
10C0
 67
     1
  8
DIM
 62
     6
 10
251.56775
 20
274.121472
 30
0.0
 11
251.56775
 21
279.605214
 31
0.0
1001
ACAD
1000
ASC_BOUNDS
1002
{
1070
    19
1005
10BA
1002
}
  0
LINE
  5
10C1
 67
     1
  8
DIM
 62
     6
 10
241.102573
 20
279.605214
 30
0.0
 11
232.650821
 21
262.199896
 31
0.0
1001
ACAD
1000
ASC_BOUNDS
1002
{
1070
    19
1005
10BA
1005
0
1005
0
1005
10BA
1002
}
  0
LINE
  5
10C2
 67
     1
  8
0
 62
     5
 10
225.191454
 20
231.692288
 30
0.0
 11
225.191454
 21
286.488785
 31
0.0
  0
LINE
  5
10C3
 67
     1
  8
DIM
 62
     6
 10
244.654862
 20
246.076066
 30
0.0
 11
244.654862
 21
256.381392
 31
0.0
1001
ACAD
1000
ASC_BOUNDS
1002
{
1070
    19
1005
10BA
1002
}
  0
LINE
  5
10C4
 67
     1
  8
DIM
 62
     6
 10
251.56775
 20
256.381392
 30
0.0
 11
251.56775
 21
246.076066
 31
0.0
1001
ACAD
1000
ASC_BOUNDS
1002
{
1070
    19
1005
10BA
1002
}
  0
LINE
  5
10C5
 67
     1
  8
DIM
 62
     6
 10
258.672329
 20
246.076066
 30
0.0
 11
258.672329
 21
256.381392
 31
0.0
1001
ACAD
1000
ASC_BOUNDS
1002
{
1070
    19
1005
10BA
1002
}
  0
LINE
  5
10C6
 67
     1
  8
DIM
 62
     6
 10
232.650821
 20
238.976074
 30
0.0
 11
232.650821
 21
256.381392
 31
0.0
1001
ACAD
1000
ASC_BOUNDS
1002
{
1070
    19
1005
10BA
1002
}
  0
LINE
  5
10C7
 67
     1
  8
DIM
 62
     6
 10
237.550283
 20
256.381392
 30
0.0
 11
237.550283
 21
246.076066
 31
0.0
1001
ACAD
1000
ASC_BOUNDS
1002
{
1070
    19
1005
10BA
1002
}
  0
LINE
  5
10C8
 67
     1
  8
DIM
 62
     6
 10
244.654862
 20
244.459816
 30
0.0
 11
241.102573
 21
238.976074
 31
0.0
1001
ACAD
1000
ASC_BOUNDS
1002
{
1070
    19
1005
10BA
1002
}
  0
LINE
  5
10C9
 67
     1
  8
DIM
 62
     6
 10
237.550283
 20
246.076066
 30
0.0
 11
244.654862
 21
246.076066
 31
0.0
1001
ACAD
1000
ASC_BOUNDS
1002
{
1070
    19
1005
10BA
1002
}
  0
LINE
  5
10CA
 67
     1
  8
DIM
 62
     6
 10
241.102573
 20
238.976074
 30
0.0
 11
232.650821
 21
238.976074
 31
0.0
1001
ACAD
1000
ASC_BOUNDS
1002
{
1070
    19
1005
10BA
1002
}
  0
LINE
  5
10CB
 67
     1
  8
DIM
 62
     6
 10
244.654862
 20
244.459816
 30
0.0
 11
244.654862
 21
238.976074
 31
0.0
1001
ACAD
1000
ASC_BOUNDS
1002
{
1070
    19
1005
10BA
1002
}
  0
LINE
  5
10CC
 67
     1
  8
DIM
 62
     6
 10
244.654862
 20
238.976074
 30
0.0
 11
255.12004
 21
238.976074
 31
0.0
1001
ACAD
1000
ASC_BOUNDS
1002
{
1070
    19
1005
10BA
1002
}
  0
LINE
  5
10CD
 67
     1
  8
DIM
 62
     6
 10
251.56775
 20
246.076066
 30
0.0
 11
258.672329
 21
246.076066
 31
0.0
1001
ACAD
1000
ASC_BOUNDS
1002
{
1070
    19
1005
10BA
1002
}
  0
LINE
  5
10CE
 67
     1
  8
DIM
 62
     6
 10
237.550283
 20
272.289721
 30
0.0
 11
244.654862
 21
272.289721
 31
0.0
1001
ACAD
1000
ASC_BOUNDS
1002
{
1070
    19
1005
10BA
1002
}
  0
LINE
  5
10CF
 67
     1
  8
DIM
 62
     6
 10
237.550283
 20
272.289721
 30
0.0
 11
237.550283
 21
262.199896
 31
0.0
1001
ACAD
1000
ASC_BOUNDS
1002
{
1070
    19
1005
10BA
1002
}
  0
LINE
  5
10D0
 67
     1
  8
DIM
 62
     6
 10
237.550283
 20
256.381392
 30
0.0
 11
232.650821
 21
256.381392
 31
0.0
1001
ACAD
1000
ASC_BOUNDS
1002
{
1070
    19
1005
10BA
1002
}
  0
LINE
  5
10D1
 67
     1
  8
DIM
 62
     6
 10
237.550283
 20
262.199896
 30
0.0
 11
232.650821
 21
262.199896
 31
0.0
1001
ACAD
1000
ASC_BOUNDS
1002
{
1070
    19
1005
10BA
1002
}
  0
LINE
  5
10D2
 67
     1
  8
DIM
 62
     6
 10
251.56775
 20
272.289721
 30
0.0
 11
251.56775
 21
262.199896
 31
0.0
1001
ACAD
1000
ASC_BOUNDS
1002
{
1070
    19
1005
10BA
1002
}
  0
LINE
  5
10D3
 67
     1
  8
DIM
 62
     6
 10
258.672329
 20
262.199896
 30
0.0
 11
258.672329
 21
272.289721
 31
0.0
1001
ACAD
1000
ASC_BOUNDS
1002
{
1070
    19
1005
10BA
1002
}
  0
LINE
  5
10D4
 67
     1
  8
DIM
 62
     6
 10
244.654862
 20
262.199896
 30
0.0
 11
244.654862
 21
272.289721
 31
0.0
1001
ACAD
1000
ASC_BOUNDS
1002
{
1070
    19
1005
10BA
1002
}
  0
LINE
  5
10D5
 67
     1
  8
DIM
 62
     6
 10
251.56775
 20
262.199896
 30
0.0
 11
244.654862
 21
262.199896
 31
0.0
1001
ACAD
1000
ASC_BOUNDS
1002
{
1070
    19
1005
10BA
1002
}
  0
LINE
  5
10D6
 67
     1
  8
DIM
 62
     6
 10
251.56775
 20
256.381392
 30
0.0
 11
244.654862
 21
256.381392
 31
0.0
1001
ACAD
1000
ASC_BOUNDS
1002
{
1070
    19
1005
10BA
1002
}
  0
LINE
  5
10D7
 67
     1
  8
DIM
 62
     6
 10
251.56775
 20
272.289721
 30
0.0
 11
258.672329
 21
272.289721
 31
0.0
1001
ACAD
1000
ASC_BOUNDS
1002
{
1070
    19
1005
10BA
1002
}
  0
LINE
  5
10D8
 67
     1
  8
DIM
 62
     6
 10
251.56775
 20
279.605214
 30
0.0
 11
241.102573
 21
279.605214
 31
0.0
1001
ACAD
1000
ASC_BOUNDS
1002
{
1070
    19
1005
10BA
1002
}
  0
LINE
  5
10D9
 67
     1
  8
DIM
 62
     6
 10
355.895391
 20
279.236882
 30
0.0
 11
355.895391
 21
273.555879
 31
0.0
  0
LINE
  5
10DA
 67
     1
  8
DIM
 62
     6
 10
355.895391
 20
279.236882
 30
0.0
 11
351.771526
 21
273.526443
 31
0.0
  0
LINE
  5
10DB
 67
     1
  8
DIM
 62
     6
 10
333.453684
 20
279.236882
 30
0.0
 11
329.329819
 21
273.526443
 31
0.0
  0
LINE
  5
10DC
 67
     1
  8
DIM
 62
     6
 10
327.827358
 20
279.236882
 30
0.0
 11
327.827358
 21
273.555879
 31
0.0
  0
LINE
  5
10DD
 67
     1
  8
DIM
 62
     6
 10
327.827358
 20
279.236882
 30
0.0
 11
323.703493
 21
273.526443
 31
0.0
  0
LINE
  5
10DE
 67
     1
  8
DIM
 62
     6
 10
323.703493
 20
279.207447
 30
0.0
 11
323.703493
 21
273.526443
 31
0.0
  0
LINE
  5
10DF
 67
     1
  8
DIM
 62
     6
 10
333.453684
 20
279.236882
 30
0.0
 11
333.453684
 21
273.555879
 31
0.0
  0
LINE
  5
10E0
 67
     1
  8
DIM
 62
     6
 10
323.703493
 20
279.207447
 30
0.0
 11
319.579627
 21
273.497008
 31
0.0
  0
LINE
  5
10E1
 67
     1
  8
DIM
 62
     6
 10
280.274522
 20
279.174508
 30
0.0
 11
276.150656
 21
273.464069
 31
0.0
  0
LINE
  5
10E2
 67
     1
  8
DIM
 62
     6
 10
263.834646
 20
279.605214
 30
0.0
 11
263.834646
 21
262.199896
 31
0.0
1001
ACAD
1000
ASC_BOUNDS
1002
{
1070
    19
1005
10BA
1002
}
  0
LINE
  5
10E3
 67
     1
  8
DIM
 62
     6
 10
280.274522
 20
279.174508
 30
0.0
 11
280.274522
 21
273.493504
 31
0.0
  0
TEXT
  5
10E4
 67
     1
  8
DIM
 62
     6
 10
269.567006
 20
273.476447
 30
0.0
 40
5.714962
  1
H MMOND
  7
STYLE1
  0
TEXT
  5
10E5
 67
     1
  8
DIM
 62
     6
 10
323.440243
 20
273.548569
 30
0.0
 40
5.714962
  1
  NUF CTURING
  7
STYLE1
  0
TEXT
  5
10E6
 67
     1
  8
DIM
 62
     7
 10
264.158078
 20
241.279374
 30
0.0
 40
3.238479
  1
CANADA - PH (519) 886 7170 - FAX (519) 886 8311
  7
STYLE1
  0
TEXT
  5
10E7
 67
     1
  8
DIM
 62
     7
 10
265.137946
 20
235.567536
 30
0.0
 40
3.238479
  1
U.S.A.  - PH (716) 631 5700 - FAX (716) 631 1156
  7
STYLE1
  0
LINE
  5
10E8
 67
     1
  8
DIM
 62
     6
 10
280.274522
 20
275.656996
 30
0.0
 11
277.734306
 21
275.656996
 31
0.0
  0
LINE
  5
10E9
 67
     1
  8
DIM
 62
     6
 10
333.453684
 20
275.71937
 30
0.0
 11
330.913468
 21
275.71937
 31
0.0
  0
LINE
  5
10EA
 67
     1
  8
DIM
 62
     6
 10
355.895391
 20
275.71937
 30
0.0
 11
353.355175
 21
275.71937
 31
0.0
  0
LINE
  5
10EC
 67
     1
  8
0
 62
     5
 10
18.697338
 20
521.933165
 30
0.0
 11
116.139632
 21
521.933165
 31
0.0
  0
TEXT
  5
10ED
 67
     1
  8
TEXT
 10
58.990922
 20
523.249259
 30
0.0
 40
2.399984
  1
NOTES
  7
STYLE1
 72
     4
 11
64.70517
 21
524.449251
 31
0.0
  0
LINE
  5
10EE
 67
     1
  8
0
 62
     5
 10
116.139632
 20
526.965337
 30
0.0
 11
116.139632
 21
511.462941
 31
0.0
  0
TEXT
  5
10EF
 67
     1
  8
DIM
  6
CONTINUOUS
 62
     2
 10
1236.053736
 20
289.821703
 30
0.0
 40
5.55625
  1
  
  0
TEXT
  5
10F0
 67
     1
  8
DIM
  6
CONTINUOUS
 62
     2
 10
1237.635544
 20
292.043988
 30
0.0
 40
5.55625
  1
 
  0
TEXT
  5
10F1
 67
     1
  8
DIM
 10
280.296794
 20
255.643008
 30
0.0
 40
9.6
  1
R111-083-000
  7
STYLE1
  0
VIEWPORT
  5
1160
 67
     1
  8
DEFPOINTS
 10
214.321062
 20
383.707917
 30
0.0
 40
388.807137
 41
255.437722
 68
     2
 69
     2
1001
ACAD
1000
MVIEW
1002
{
1070
    16
1010
0.0
1020
0.0
1030
0.0
1010
0.0
1020
0.0
1030
1.0
1040
0.0
1040
16.720279
1040
8.769947
1040
5.147672
1040
50.0
1040
0.0
1040
0.0
1070
     0
1070
   100
1070
     1
1070
     1
1070
     0
1070
     0
1070
     0
1070
     0
1040
0.0
1040
0.0
1040
0.0
1040
0.5
1040
0.5
1040
0.5
1040
0.5
1070
     0
1002
{
1002
}
1002
}
  0
TEXT
  5
16A1
 67
     1
  8
TEXT
 10
22.440673
 20
516.491544
 30
0.0
 40
2.4
  1
MATERIAL - DIECAST ALUMINUM ALLOY
  0
TEXT
  5
16A2
 67
     1
  8
TEXT
 10
22.440673
 20
512.491544
 30
0.0
 40
2.4
  1
        - FOUR M9 CAPTIVE SCREWS
  0
TEXT
  5
16A3
 67
     1
  8
TEXT
 10
22.440673
 20
504.491544
 30
0.0
 40
2.4
  1
POWDER COATED - Col. RAL 7032
  0
TEXT
  5
16A4
 67
     1
  8
TEXT
 10
22.440673
 20
500.491544
 30
0.0
 40
2.4
  1
POLYURETHANE GASKET
  0
TEXT
  5
16A5
 67
     1
  8
TEXT
 10
22.440673
 20
496.491544
 30
0.0
 40
2.4
  1
-40%%DC TO +80%%DC TEMP. RANGE
  0
ENDSEC
  0
EOF
